[ Сегодня на трекере фрилич! Идет свободное скачивание без начисления Download ]

Влюблённый Шекспир / Shakespeare in Love (Джон Мэдден / John Madden) [1998 г., драма, мелодрама, комедия, HDTVRip, 1080p] MVO (ОРТ)

 

Создавать темы 22-Янв-2015 05:02

Влюблённый Шекспир / Shakespeare in Love-«Love is the only inspiration»- Год выпуска: 1998 г.
Производство: США , Великобритания , Miramax Films, Universal Pictures
Жанр: драма, мелодрама, комедия
Продолжительность: 01:53:32
Мировая премьера: 3 декабря 1998
Российская премьера: октябрь 1999
Дата выхода DVD: 30 июня 2011, «Флагман-Трейд»
Перевод: Профессиональный (многоголосый, закадровый) [ОРТ]
Режиссёр: Джон Мэдден / John Madden-В ролях: Гвинет Пэлтроу, Джозеф Файнс, Джеффри Раш, Колин Фёрт, Бен Аффлек, Джуди Денч, Саймон Кэллоу, Джим Картер, Мартин Клунес, Энтони Шер-Описание: Лондон. 1594 г. Молодой драматург Уильям Шекспир находится в творческом кризисе: муза покинула его; денег нет; хозяин театра требует от автора новую пьесу в кратчайший срок. И когда, казалось бы, у писателя не остаётся никакой надежды на обретение нового вдохновения, в его жизнь вторгается сама Любовь в лице обворожительной аристократки Виолы. Под видом молодого актёра девушка нанимается в труппу театра, чтобы сыграть главную мужскую роль в пьесе «Ромео и Джульетта». Виола не только преданная поклонница маэстро Шекспира, но и прекрасная актриса. Существует лишь одна загвоздка: Виола обручена с важным дворянином, который планирует отвезти будущую супругу в далёкую английскую колонию…
-Качество видео: HDTVRip (1080p)
Контейнер: MKV
Видео кодек: AVC
Аудио кодек: AC3
Видео: 1920x1080, 10.8 Mbps, 25 fps
Аудио: 192 kbps, 2 ch, 48.0 kHz
Cубтитры: отсутствуют

Награды

«Золотой сателлит» за лучшую комедию, приз за сценарий на МКФ в Берлине в 1999 году, «Чешский лев» в Чехии, Национальная премия кинокритики и кинопрессы в России, приз «Кинема дзюнпо» в Японии — все за лучший иностранный фильм в 1999 году.
Оскар, 1999 год
Победитель (7):
Лучший фильм
Лучшая женская роль (Гвинет Пэлтроу)
Лучшая женская роль второго плана (Джуди Денч)
Лучший сценарий
Лучшие декорации
Лучшие костюмы
Лучший саундтрек к музыкальному/комедийному фильму
Номинации (6):
Лучшая мужская роль второго плана (Джеффри Раш)
Лучший режиссер (Джон Мэдден)
Лучшая работа оператора
Лучший звук
Лучший монтаж
Лучший грим
Золотой глобус, 1999 год
Победитель (3):
Лучший фильм (комедия или мюзикл)
Лучшая женская роль (комедия или мюзикл) (Гвинет Пэлтроу)
Лучший сценарий
Номинации (3):
Лучшая мужская роль второго плана (Джеффри Раш)
Лучшая женская роль второго плана (Джуди Денч)
Лучший режиссер (Джон Мэдден)
Премия канала «MTV», 1999 год
Победитель (1):
Лучший поцелуй (Гвинет Пэлтроу, Джозеф Файнс)
Номинации (3):
Лучший фильм
Лучшая женская роль (Гвинет Пэлтроу)
Мужской прорыв года (Джозеф Файнс)
Британская академия, 1999 год
Победитель (3):
Лучший фильм
Лучшая женская роль второго плана (Джуди Денч)
Лучший монтаж
Номинации (12):
Лучшая мужская роль (Джозеф Файнс)
Лучшая женская роль (Гвинет Пэлтроу)
Лучшая мужская роль второго плана (Джеффри Раш)
Лучшая мужская роль второго плана (Том Уилкинсон)
Лучший оригинальный сценарий
Лучшая работа оператора
Лучшие костюмы
Лучший звук
Лучший грим/прически
Лучшая работа художника-постановщика
Премия имени Дэвида Лина за достижения в режиссуре (Джон Мэдден)
Премия имени Энтони Эскуита за достижения в создании музыки к фильму
Берлинский кинофестиваль, 1999 год
Победитель (2):
Серебряный Медведь за выдающиеся персональные достижения (Том Стоппард, Марк Норман)
Приз газеты Berliner Morgenpost
Номинации (1):
Золотой Медведь
Премия Гильдии актеров, 1999 год
Победитель (2):
Лучший актерский состав
Лучшая женская роль (Гвинет Пэлтроу)
Номинации (3):
Лучшая мужская роль (Джозеф Файнс)
Лучшая женская роль второго плана (Джуди Денч)
Лучшая мужская роль второго плана (Джеффри Раш)

Media Info

Общее
Уникальный идентификатор : 221695793996755044765788072040094419147 (0xA6C90E8BC689AC65A9A061948392C8CB)
Полное имя : Влюблённый Шекспир_ Shakespeare in Love.1998.[HDTVRip.1080p].mkv
Формат : Matroska
Версия формата : Version 4 / Version 2
Размер файла : 8,92 Гбайт
Продолжительность : 1 ч. 53 м.
Общий поток : 11,2 Мбит/сек
Дата кодирования : UTC 2014-11-08 08:39:10
Программа кодирования : mkvmerge v7.3.0 ('Nouages') 64bit built on Oct 22 2014 18:53:34
Библиотека кодирования : libebml v1.3.0 + libmatroska v1.4.1
Видео
Идентификатор : 1
Формат : AVC
Формат/Информация : Advanced Video Codec
Профиль формата : [email protected]
Параметр CABAC формата : Да
Параметр ReFrames формата : 4 кадра
Идентификатор кодека : V_MPEG4/ISO/AVC
Продолжительность : 1 ч. 53 м.
Битрейт : 10,8 Мбит/сек
Ширина : 1920 пикселей
Высота : 1080 пикселей
Соотношение сторон : 16:9
Режим частоты кадров : Постоянный
Частота кадров : 25,000 кадров/сек
Цветовое пространство : YUV
Субдискретизация насыщенности : 4:2:0
Битовая глубина : 8 бит
Тип развёртки : Прогрессивная
Бит/(Пиксели*Кадры) : 0.209
Размер потока : 8,59 Гбайт (96%)
Библиотека кодирования : x264 core 142 r2431 ac76440
Настройки программы : cabac=1 / ref=4 / deblock=1:-1:-1 / analyse=0x3:0x113 / me=umh / subme=10 / psy=1 / psy_rd=1.00:0.15 / mixed_ref=1 / me_range=32 / chroma_me=1 / trellis=2 / 8x8dct=1 / cqm=0 / deadzone=21,11 / fast_pskip=1 / chroma_qp_offset=-3 / threads=6 / lookahead_threads=1 / sliced_threads=0 / nr=0 / decimate=1 / interlaced=0 / bluray_compat=0 / constrained_intra=0 / bframes=8 / b_pyramid=2 / b_adapt=2 / b_bias=0 / direct=3 / weightb=1 / open_gop=0 / weightp=2 / keyint=240 / keyint_min=24 / scenecut=40 / intra_refresh=0 / rc_lookahead=40 / rc=crf / mbtree=0 / crf=17.1 / qcomp=0.60 / qpmin=0 / qpmax=69 / qpstep=4 / vbv_maxrate=50000 / vbv_bufsize=62500 / crf_max=0.0 / nal_hrd=none / filler=0 / ip_ratio=1.40 / pb_ratio=1.30 / aq=1:1.00
Язык : English
Default : Да
Forced : Нет
Аудио
Идентификатор : 2
Формат : AC-3
Формат/Информация : Audio Coding 3
Расширение режима : CM (complete main)
Параметр Endianness формата : Big
Идентификатор кодека : A_AC3
Продолжительность : 1 ч. 53 м.
Вид битрейта : Постоянный
Битрейт : 192 Кбит/сек
Каналы : 2 канала
Расположение каналов : Front: L R
Частота : 48,0 КГц
Битовая глубина : 16 бит
Метод сжатия : С потерями
Размер потока : 156 Мбайт (2%)
Заголовок : MVO (OPT)
Язык : Russian
Default : Да
Forced : Нет

Ещё скриншоты

Яндекс.Метрика
Рейтинг@Mail.ru