[ Сегодня на трекере фрилич! Идет свободное скачивание без начисления Download ]

Жестокая справедливость / Hard Justice (Грег Яйтанс / Greg Yaitanes) [1995 г., Боевик, DVDRip-AVC] AVO (Гаврилов) + MVO + Original (Eng)

 

Создавать темы 22-Янв-2015 04:56

Жестокая справедливость / Hard Justice
Год выпуска: 1995
Производство: США
Жанр: Боевик
Продолжительность: 01:31:00
Перевод: Авторский (одноголосый, закадровый) Андрей Гаврилов
Перевод: Профессиональный (многоголосый, закадровый) MVO
Оригинальный аудиопоток: английский
Субтитры: отсутствуют
Режиссер: Грег Яйтанс / Greg Yaitanes
В ролях: Дэвид Брэдли, Чарльз Нэпьер, Юдзи Окумото, Clabe Hartley, Беннита Андре, Джим Маниачи, Адам Кларк, Алон Стиви, Уилли Вонг, Джон Кояма
Описание: Специальный агент Ник Адамс добровольно идет в тюрьму, чтобы, выдав себя за уголовника, отомстить за смерть друга и довести до конца дело, начатое им… Чем ближе к разгадке, тем ближе к смерти.
Качество видео: DVDRip-AVC
Контейнер: MKV
Видео кодек: H.264
Аудио кодек: AC3
Видео: 720x388, 23.976fps, 1809Kbps, 0.270 bt/px
Аудио : AC-3, 192 Kbps, 2 ch, 48.0 KHz Rus Гаврилов
Аудио : AC-3, 192 Kbps, 2 ch, 48.0 KHz Rus MVO
Аудио : AC-3, 192 Kbps, 2 ch, 48.0 KHz Eng Original

Media Info

G:\загрузки\Hard Justice.mkv
General
Unique ID : 231754694013487101304252923598923504180 (0xAE5A549B56D3C19BAEA3142680061A34)
Complete name : G:\загрузки\Hard Justice.mkv
Format : Matroska
Format version : Version 1
File size : 1.55 GiB
Duration : 1h 31mn
Overall bit rate : 2 433 Kbps
Encoded date : UTC 2015-01-21 11:45:45
Writing application : mkvmerge v2.5.3 ('Boogie') built on Mar 7 2009 15:00:41
Writing library : libebml v0.7.7 + libmatroska v0.8.1
Video #1
ID : 1
Format : AVC
Format/Info : Advanced Video Codec
Format profile : [email protected]
Format settings, CABAC : Yes
Format settings, ReFrames : 9 frames
Codec ID : V_MPEG4/ISO/AVC
Duration : 1h 31mn
Bit rate : 1 809 Kbps
Width : 720 pixels
Height : 388 pixels
Display aspect ratio : 1.85:1
Frame rate mode : Constant
Frame rate : 23.976 fps
Color space : YUV
Chroma subsampling : 4:2:0
Bit depth : 8 bits
Scan type : Progressive
Bits/(Pixel*Frame) : 0.270
Stream size : 1.15 GiB (74%)
Writing library : x264 core 130 r2273 b3065e6
Encoding settings : cabac=1 / ref=9 / deblock=1:-3:-3 / analyse=0x3:0x133 / me=umh / subme=11 / psy=1 / psy_rd=1.00:0.15 / mixed_ref=1 / me_range=24 / chroma_me=1 / trellis=2 / 8x8dct=1 / cqm=0 / deadzone=21,11 / fast_pskip=1 / chroma_qp_offset=-3 / threads=6 / lookahead_threads=1 / sliced_threads=0 / nr=0 / decimate=1 / interlaced=0 / bluray_compat=0 / constrained_intra=0 / bframes=8 / b_pyramid=2 / b_adapt=2 / b_bias=0 / direct=1 / weightb=1 / open_gop=0 / weightp=2 / keyint=250 / keyint_min=23 / scenecut=40 / intra_refresh=0 / rc_lookahead=50 / rc=crf / mbtree=1 / crf=17.5 / qcomp=0.60 / qpmin=0 / qpmax=51 / qpstep=4 / ip_ratio=1.40 / aq=1:1.00
Language : English
Default : Yes
Forced : No
Audio #2
ID : 2
Format : AC-3
Format/Info : Audio Coding 3
Format profile : Dolby Digital
Mode extension : CM (complete main)
Format settings, Endianness : Big
Codec ID : A_AC3
Duration : 1h 31mn
Bit rate mode : Constant
Bit rate : 192 Kbps
Channel(s) : 2 channels
Channel positions : Front: L R
Sampling rate : 48.0 KHz
Bit depth : 16 bits
Compression mode : Lossy
Stream size : 125 MiB (8%)
Title : AVO Гаврилов
Language : Russian
Default : Yes
Forced : No
Audio #3
ID : 3
Format : AC-3
Format/Info : Audio Coding 3
Mode extension : CM (complete main)
Format settings, Endianness : Big
Codec ID : A_AC3
Duration : 1h 31mn
Bit rate mode : Constant
Bit rate : 192 Kbps
Channel(s) : 2 channels
Channel positions : Front: L R
Sampling rate : 48.0 KHz
Bit depth : 16 bits
Compression mode : Lossy
Stream size : 125 MiB (8%)
Title : MVO
Language : Russian
Default : No
Forced : No
Audio #4
ID : 4
Format : AC-3
Format/Info : Audio Coding 3
Mode extension : CM (complete main)
Format settings, Endianness : Big
Codec ID : A_AC3
Duration : 1h 31mn
Bit rate mode : Constant
Bit rate : 192 Kbps
Channel(s) : 2 channels
Channel positions : Front: L R
Sampling rate : 48.0 KHz
Bit depth : 16 bits
Compression mode : Lossy
Stream size : 125 MiB (8%)
Language : English
Default : No
Forced : No

log x.264

x264 [info]: frame I:1188  Avg QP:15.37  size: 56374
x264 [info]: frame P:31551 Avg QP:18.85 size: 20657
x264 [info]: frame B:98171 Avg QP:21.28 size: 5564
x264 [info]: consecutive B-frames: 2.9% 3.7% 13.9% 21.9% 19.8% 33.1% 3.3% 0.9% 0.4%
x264 [info]: mb I I16..4: 12.5% 59.9% 27.7%
x264 [info]: mb P I16..4: 1.1% 15.3% 3.9% P16..4: 26.3% 34.0% 12.9% 3.2% 0.5% skip: 2.9%
x264 [info]: mb B I16..4: 0.1% 1.8% 0.8% B16..8: 39.3% 21.8% 3.0% direct: 6.0% skip:27.2% L0:37.7% L1:43.8% BI:18.6%
x264 [info]: 8x8 transform intra:71.6% inter:56.6%
x264 [info]: coded y,uvDC,uvAC intra: 88.0% 76.6% 45.8% inter: 31.3% 17.5% 2.9%
x264 [info]: i16 v,h,dc,p: 28% 11% 24% 38%
x264 [info]: i8 v,h,dc,ddl,ddr,vr,hd,vl,hu: 13% 7% 8% 9% 14% 13% 12% 11% 12%
x264 [info]: i4 v,h,dc,ddl,ddr,vr,hd,vl,hu: 44% 5% 5% 6% 9% 9% 8% 7% 7%
x264 [info]: i8c dc,h,v,p: 29% 29% 22% 19%
x264 [info]: Weighted P-Frames: Y:5.1% UV:2.3%
x264 [info]: ref P L0: 46.5% 12.2% 18.2% 5.9% 5.4% 3.5% 3.5% 1.9% 2.2% 0.6% 0.0%
x264 [info]: ref B L0: 87.5% 6.9% 2.3% 1.2% 0.8% 0.7% 0.4% 0.2%
x264 [info]: ref B L1: 96.8% 3.2%
x264 [info]: kb/s:1853.43
x264 [total]: encoded 130910 frames, 8.89 fps, 1853.43 kb/s

Скриншоты

Яндекс.Метрика
Рейтинг@Mail.ru