Ошибка времени / Time Lapse (Брэдли Кинг / Bradley King) [2014 г., фантастика, триллер, WEB-DLRip] DVO (RAIM & GUGU)

 

Создавать темы 22-Янв-2015 04:53

-Ошибка времени / Time Lapse-- Производство: США, Uncooperative Pictures
Год выпуска: 2014 г.
Жанр: фантастика, триллер
Продолжительность: 01:43:47
Мировая премьера: 19 апреля 2014
Российская премьера: 19 сентября 2014
Перевод: Любительский (двухголосый, закадровый) [RAIM & GUGU]
Режиссер: Брэдли Кинг / Bradley King-В ролях: Даниэль Панабэйкер, Мэтт О`Лири, Джордж Финн, Эймин Джозеф, Джейсон Спайсэк, Дэвид Фильоли, Шэрон Мофан, Джудит Дрэйк, Марк С. Хэнсон-Описание: Трое приятелей — подающий надежды художник и по совместительству управдом Финн, его девушка официантка и писательница Кэлли и их друг Джаспер, помешанный на собачьих гонках, — находят в комнате соседа-ученого странное изобретение — машину, печатающую фотографии из будущего дня. Теперь Джаспер знает, на каких собак нужно ставить, и Финн и Кэлли могут, наконец, посвятить себя любимым занятиям. Но вскоре визуальные пророчества загадочной машины начинают обескураживать и пугать героев…-Качество видео: WEB-DLRip
Контейнер: AVI
Видео кодек: XviD
Аудио кодек: AC3
Видео: 720x400, 16:9, 1537 Кбит/сек, 23,976 кадра/сек, 0,223 Бит/(Пиксели*Кадры)
Аудио: 192 Кбит/сек, 2 канала, 48,0 КГц
Cубтитры: отсутствуют

Рецензия

Очень даже неплохо!Мне нравятся фильмы, где есть элементы мистики и фантастики, и «Time Lapse» меня не разочаровал!
Хотя идея с камерой, которая делает снимки будущего, и не нова, но в этом фильме её обыграли довольно интересно. Минимум локаций, скучные типовые домики, стоящие «окна в окна», и лёгкий эффект реалити-шоу смотрятся гармонично и способствуют нагнетанию обстановки. Для такого фильма игра актёров вполне хороша, а развязка интересная и, что приятно, дружит с логикой!
Фильм смотрелся на одном дыхании и я смело советую его всем любителям такого типа фантастики!8 из 10

Media Info

Общее
Полное имя                               : D:\movies\Time.Lapse.2014.HDRip.XviD.avi
Формат                                   : AVI
Формат/Информация                        : Audio Video Interleave
Размер файла                             : 1,26 Гбайт
Продолжительность                        : 1 ч. 43 м.
Общий поток                              : 1738 Кбит/сек
Программа кодирования                    : VirtualDubMod 1.5.10.2 (build 2542/release)
Библиотека кодирования                   : VirtualDubMod build 2542/release
Видео
Идентификатор                            : 0
Формат                                   : MPEG-4 Visual
Профиль формата                          : Advanced [email protected]
Параметр BVOP формата                    : 2
Параметр QPel формата                    : Нет
Параметр GMC формата                     : Без точки перехода
Параметр матрицы формата                 : Default (H.263)
Режим смешивания                         : Сжатый битовый поток
Идентификатор кодека                     : XVID
Идентификатор кодека/Подсказка           : XviD
Продолжительность                        : 1 ч. 43 м.
Битрейт                                  : 1537 Кбит/сек
Ширина                                   : 720 пикселей
Высота                                   : 400 пикселей
Соотношение сторон                       : 16:9
Частота кадров                           : 23,976 кадра/сек
Цветовое пространство                    : YUV
Субдискретизация насыщенности            : 4:2:0
Битовая глубина                          : 8 бит
Тип развёртки                            : Прогрессивная
Метод сжатия                             : С потерями
Бит/(Пиксели*Кадры)                      : 0.223
Размер потока                            : 1,11 Гбайт (88%)
Библиотека кодирования                   : XviD 64
Аудио
Идентификатор                            : 1
Формат                                   : AC-3
Формат/Информация                        : Audio Coding 3
Расширение режима                        : CM (complete main)
Параметр Endianness формата              : Big
Идентификатор кодека                     : 2000
Продолжительность                        : 1 ч. 43 м.
Вид битрейта                             : Постоянный
Битрейт                                  : 192 Кбит/сек
Каналы                                   : 2 канала
Расположение каналов                     : Front: L R
Частота                                  : 48,0 КГц
Битовая глубина                          : 16 бит
Метод сжатия                             : С потерями
Размер потока                            : 143 Мбайт (11%)
Выравнивание                             : Разделение по промежуткам
Продолжительность промежутка             : 42  мс. (1,00 видеокадр)
Время предзагрузки промежутка            : 500  мс.

Скриншоты

Яндекс.Метрика
Рейтинг@Mail.ru