[ Сегодня на трекере фрилич! Идет свободное скачивание без начисления Download ]

(Author's Song) Александр Новиков - Извозчик - 1984 [FLAC, image+.cue, lossless]

 

Создавать темы 21-Янв-2015 17:02

-Александр Новиков / Извозчик-- Год издания: 1984 (Remastered 2002)
Страна: Россия
Жанр: Author's Song
Продолжительность: 01:09:08-Лейбл издания: студия А. Новикова
Страна-выпуска диска: Россия
Номер по каталогу: (!)отсутствует
Формат: FLAC
Битрейт аудио: lossless
Тип рипа: image+.cue
Наличие сканов в содержимом раздачи: да
-

Трэклист

01.Вези меня,извозчик (04:58)
02.Куда ведут пути-дорожки (03:20)
03.Я вышел родом из еврейского квартала (03:39)
04.Город древний (03:58)
05.Гостиничная история (04:25)
06.В захолустном ресторане (04:01)
07.Рублики-копеечки (02:39)
08.Похороны Абрама (03:43)
09.Кляузник- сосед (03:33)
10.Телефонный разговор (02:59)
11.Фаэтон (04:13)
12.Меня еще не раз посадят в лужу (02:39)
13.Помнишь,девочка? (03:35)
14.Вы уезжаете (03:35)
15.Катилась по асфальту (04:24)
16.Улица Восточная (04:07)
17.Развязать бы мой язык (05:12)
18.В магазине грампластинок (03:58)

Лог создания рипа

Exact Audio Copy V1.0 beta 3 from 29. August 2011
Отчёт EAC об извлечении, выполненном 4. января 2014, 19:43
Александр Новиков / Извозчик '84
Дисковод: Optiarc DVD RW AD-7243S   Adapter: 3  ID: 1
Режим чтения                 : Достоверность
Использование точного потока : Да
Отключение кэша аудио        : Да
Использование указателей C2  : Нет
Коррекция смещения при чтении                     : 48
Способность читать области Lead-in и Lead-out     : Нет
Заполнение пропущенных сэмплов тишиной            : Да
Удаление блоков с тишиной в начале и конце        : Нет
При вычислениях CRC использовались нулевые сэмплы : Да
Интерфейс                                         : Встроенный Win32-интерфейс для Win NT/2000
Выходной формат          : Пользовательский кодировщик
Выбранный битрейт        : 768 kBit/s
Качество                 : Высокий
Добавление ID3-тега      : Нет
Утилита сжатия           : C:\Program Files\Exact Audio Copy\FLAC\FLAC.EXE
Дополнительные параметры : -6 -V -T "ARTIST=%artist%" -T "TITLE=%title%" -T "ALBUM=%albumtitle%" -T "DATE=%year%" -T "TRACKNUMBER=%tracknr%" -T "GENRE=%genre%" -T "COMMENT=%comment%" -T "BAND=%albuminterpret%" -T "ALBUMARTIST=%albuminterpret%" -T "COMPOSER=%composer%" %haslyrics%--tag-from-file=LYRICS="%lyricsfile%"%haslyrics% -T "DISCNUMBER=%cdnumber%" -T "TOTALDISCS=%totalcds%" -T "TOTALTRACKS=%numtracks%" %hascover%--picture="%coverfile%"%hascover% %source% -o %dest%
TOC извлечённого CD
Трек |   Старт  | Длительность | Начальный сектор | Конечный сектор
---------------------------------------------------------------------
1  |  0:00.08 |    4:58.70   |           8      |      22427
2  |  4:59.03 |    3:20.60   |       22428      |      37487
3  |  8:19.63 |    3:39.17   |       37488      |      53929
4  | 11:59.05 |    3:58.30   |       53930      |      71809
5  | 15:57.35 |    4:25.50   |       71810      |      91734
6  | 20:23.10 |    4:01.65   |       91735      |     109874
7  | 24:25.00 |    2:39.73   |      109875      |     121872
8  | 27:04.73 |    3:43.02   |      121873      |     138599
9  | 30:48.00 |    3:33.65   |      138600      |     154639
10  | 34:21.65 |    2:59.30   |      154640      |     168094
11  | 37:21.20 |    4:13.63   |      168095      |     187132
12  | 41:35.08 |    2:39.05   |      187133      |     199062
13  | 44:14.13 |    3:35.67   |      199063      |     215254
14  | 47:50.05 |    3:35.20   |      215255      |     231399
15  | 51:25.25 |    4:24.50   |      231400      |     251249
16  | 55:50.00 |    4:07.63   |      251250      |     269837
17  | 59:57.63 |    5:12.65   |      269838      |     293302
18  | 65:10.53 |    3:58.22   |      293303      |     311174
Характеристики диапазона извлечения и сообщения об ошибках
Выбранный диапазон
Имя файла E:\Временная\Александр Новиков - Извозчик '84.wav
Пиковый уровень 100.0 %
Скорость извлечения 4.1 X
Качество диапазона 99.9 %
CRC теста 971DA963
CRC копии 971DA963
Копирование... OK
Ошибок не произошло
Конец отчёта

Индексная карта (non-compilant .cue)

REM GENRE шансон
REM DATE 2002
REM DISCID 01103512
REM COMMENT "ExactAudioCopy v1.0b3"
PERFORMER "Александр Новиков"
TITLE "Извозчик '84"
FILE "Александр Новиков - Извозчик '84.flac" WAVE
TRACK 01 AUDIO
TITLE "Вези меня,извозчик"
PERFORMER "Александр Новиков"
INDEX 00 00:00:00
INDEX 01 00:00:08
TRACK 02 AUDIO
TITLE "Куда ведут пути-дорожки"
PERFORMER "Александр Новиков"
INDEX 00 04:57:03
INDEX 01 04:59:03
TRACK 03 AUDIO
TITLE "Я вышел родом из еврейского квартала"
PERFORMER "Александр Новиков"
INDEX 00 08:17:63
INDEX 01 08:19:63
TRACK 04 AUDIO
TITLE "Город древний"
PERFORMER "Александр Новиков"
INDEX 00 11:57:03
INDEX 01 11:59:05
TRACK 05 AUDIO
TITLE "Гостиничная история"
PERFORMER "Александр Новиков"
INDEX 00 15:55:30
INDEX 01 15:57:35
TRACK 06 AUDIO
TITLE "В захолустном ресторане"
PERFORMER "Александр Новиков"
INDEX 00 20:21:05
INDEX 01 20:23:10
TRACK 07 AUDIO
TITLE "Рублики-копеечки"
PERFORMER "Александр Новиков"
INDEX 00 24:23:00
INDEX 01 24:25:00
TRACK 08 AUDIO
TITLE "Похороны Абрама"
PERFORMER "Александр Новиков"
INDEX 00 27:02:68
INDEX 01 27:04:73
TRACK 09 AUDIO
TITLE "Кляузник- сосед"
PERFORMER "Александр Новиков"
INDEX 00 30:45:70
INDEX 01 30:48:00
TRACK 10 AUDIO
TITLE "Телефонный разговор"
PERFORMER "Александр Новиков"
INDEX 00 34:19:65
INDEX 01 34:21:65
TRACK 11 AUDIO
TITLE "Фаэтон"
PERFORMER "Александр Новиков"
INDEX 00 37:19:13
INDEX 01 37:21:20
TRACK 12 AUDIO
TITLE "Меня еще не раз посадят в лужу"
PERFORMER "Александр Новиков"
INDEX 00 41:33:08
INDEX 01 41:35:08
TRACK 13 AUDIO
TITLE "Помнишь,девочка?"
PERFORMER "Александр Новиков"
INDEX 00 44:12:00
INDEX 01 44:14:13
TRACK 14 AUDIO
TITLE "Вы уезжаете"
PERFORMER "Александр Новиков"
INDEX 00 47:48:05
INDEX 01 47:50:05
TRACK 15 AUDIO
TITLE "Катилась по асфальту"
PERFORMER "Александр Новиков"
INDEX 00 51:23:20
INDEX 01 51:25:25
TRACK 16 AUDIO
TITLE "Улица Восточная"
PERFORMER "Александр Новиков"
INDEX 00 55:47:73
INDEX 01 55:50:00
TRACK 17 AUDIO
TITLE "Развязать бы мой язык"
PERFORMER "Александр Новиков"
INDEX 00 59:55:58
INDEX 01 59:57:63
TRACK 18 AUDIO
TITLE "В магазине грампластинок"
PERFORMER "Александр Новиков"
INDEX 00 65:08:48
INDEX 01 65:10:53

Лог Audiochecker

AUDIOCHECKER v2.0 beta (build 457) - by Dester - [email protected]
~~~~~~~~~~~~~~~~~~~~~~~~~~~~~~~~~~
Started at: среда, 21. 01. 2015. - 15:43.13
1 file found
1 -===- J:\временная папка музыка\Александр Новиков - 2002 - Извозчик '84 (Flac)\Александр Новиков - Извозчик '84.flac
Extracted successfully
Conclusion: this track is CDDA with probability 100%
Tempfile successfully deleted.
Finished at: среда, 21. 01. 2015. - 15:46.27 (operation time: 0:03.14)

Скриншот спектра частот

Об альбоме (сборнике)

Оригинальная запись была произведена в 1984 г. на 2-х канальном магнитофоне в помещении ДК УЗТМ г.Свердловска подпольно.

Состав

Автор стихов и музыки Александр Новиков. Клавишные-А.Хоменко. Бас-В.Чикунов. Гитара-В.Елизаров.Ю.Абрамов. Саксофон-С.Кузнецов. Ударные-С.Пьянков. Оркестр Широкореченского кладбища под управлением Б.Важенина (труба)
--Не забываем говорить
Яндекс.Метрика
Рейтинг@Mail.ru