Стрелок / Shooter (Антуан Фукуа / Antoine Fuquay) [2007 г., боевик, триллер, драма, криминал, детектив, BDRip, 720p] AVO (Гаврилов, Королёв, Живов) + VO (Чадов) + DVO (Гланц и Королёва) + Original (Eng)

 

Создавать темы 21-Янв-2015 05:26

Стрелок / Shooter
Год выпуска: 2007
Производство: США
Жанр: боевик, триллер, драма, криминал, детектив
Продолжительность: 02:05:43
Перевод: Авторский (одноголосый, закадровый) Андрей Гаврилов, Владимир Королёв, Юрий Живов
Перевод: Любительский (одноголосый, закадровый) Михаил Чадов
Перевод: Профессиональный (двухголосый, закадровый) Гланц и Инна Королёва
Оригинальный аудиопоток: английский
Субтитры: отсутствуют
Режиссер: Антуан Фукуа / Antoine Fuquay
В ролях: Марк Уолберг, Майкл Пенья, Дэнни Гловер, Кейт Мара, Элиас Котеас, Рона Митра, Джонатан Уолкер, Джастин Луис, Тейт Донован, Раде Шербеджия
Описание: Опытный снайпер Боб Ли оказывается втянутым в заговор с целью убийства президента. Похоже, что его хотят подставить и «сдать» властям, поэтому ему необходимо как можно быстрее найти и обезвредить настоящего убийцу…
Сэмпл , , КиноПоиск
Качество видео: BDRip
Контейнер: MKV
Стандарт разрешения: 720p
Видео кодек: H.264
Аудио кодек: AC3
Видео: 1280x532, 23.976 fps, 4062 Kbps, 0.249 Bt/Px
Аудио : AC-3, 384 Kbps, 6 ch, 48.0 KHz Rus Гаврилов
Аудио : AC-3, 384 Kbps, 6 ch, 48.0 KHz Rus Королёв
Аудио : AC-3, 448 Kbps, 6 ch, 48.0 KHz Rus Живов
Аудио : AC-3, 448 Kbps, 6 ch, 48.0 KHz Rus Чадов
Аудио : AC-3, 448 Kbps, 6 ch, 48.0 KHz Rus Гланц и Королёва
Аудио : AC-3, 448 Kbps, 6 ch, 48.0 KHz Chi Original

Media Info

G:\загрузки\SHOOTER(СТРЕЛОК).mkv
General
Unique ID : 253301528613398564126671183062464676858 (0xBE9019927E494A848641E5C9232F43FA)
Complete name : G:\загрузки\SHOOTER(СТРЕЛОК).mkv
Format : Matroska
Format version : Version 1
File size : 5.93 GiB
Duration : 2h 5mn
Overall bit rate : 6 757 Kbps
Movie name : Shooter.2007.720p.BDrip_arestarh
Encoded date : UTC 2015-01-20 05:52:06
Writing application : mkvmerge v2.5.3 ('Boogie') built on Mar 7 2009 15:00:41
Writing library : libebml v0.7.7 + libmatroska v0.8.1
Attachment : Yes / Yes / Yes / Yes
Video #1
ID : 1
Format : AVC
Format/Info : Advanced Video Codec
Format profile : [email protected]
Format settings, CABAC : Yes
Format settings, ReFrames : 12 frames
Codec ID : V_MPEG4/ISO/AVC
Duration : 2h 5mn
Bit rate : 4 062 Kbps
Width : 1 280 pixels
Height : 532 pixels
Display aspect ratio : 2.40:1
Frame rate mode : Constant
Frame rate : 23.976 fps
Color space : YUV
Chroma subsampling : 4:2:0
Bit depth : 8 bits
Scan type : Progressive
Bits/(Pixel*Frame) : 0.249
Stream size : 3.57 GiB (60%)
Writing library : x264 core 130 r2273 b3065e6
Encoding settings : cabac=1 / ref=12 / deblock=1:-3:-3 / analyse=0x3:0x133 / me=umh / subme=11 / psy=1 / psy_rd=1.00:0.15 / mixed_ref=1 / me_range=32 / chroma_me=1 / trellis=2 / 8x8dct=1 / cqm=0 / deadzone=21,11 / fast_pskip=1 / chroma_qp_offset=-3 / threads=6 / lookahead_threads=1 / sliced_threads=0 / nr=0 / decimate=1 / interlaced=0 / bluray_compat=0 / constrained_intra=0 / bframes=8 / b_pyramid=2 / b_adapt=2 / b_bias=0 / direct=1 / weightb=1 / open_gop=0 / weightp=2 / keyint=250 / keyint_min=23 / scenecut=40 / intra_refresh=0 / rc_lookahead=50 / rc=crf / mbtree=1 / crf=16.0 / qcomp=0.60 / qpmin=0 / qpmax=51 / qpstep=4 / ip_ratio=1.40 / aq=1:1.00
Language : English
Default : Yes
Forced : No
Audio #2
ID : 2
Format : AC-3
Format/Info : Audio Coding 3
Mode extension : CM (complete main)
Format settings, Endianness : Big
Codec ID : A_AC3
Duration : 2h 5mn
Bit rate mode : Constant
Bit rate : 384 Kbps
Channel(s) : 6 channels
Channel positions : Front: L C R, Side: L R, LFE
Sampling rate : 48.0 KHz
Bit depth : 16 bits
Compression mode : Lossy
Stream size : 345 MiB (6%)
Title : AVO Гаврилов
Language : Russian
Default : Yes
Forced : No
Audio #3
ID : 3
Format : AC-3
Format/Info : Audio Coding 3
Mode extension : CM (complete main)
Format settings, Endianness : Big
Codec ID : A_AC3
Duration : 2h 5mn
Bit rate mode : Constant
Bit rate : 384 Kbps
Channel(s) : 6 channels
Channel positions : Front: L C R, Side: L R, LFE
Sampling rate : 48.0 KHz
Bit depth : 16 bits
Compression mode : Lossy
Stream size : 345 MiB (6%)
Title : AVO Королёв
Language : Russian
Default : No
Forced : No
Audio #4
ID : 4
Format : AC-3
Format/Info : Audio Coding 3
Mode extension : CM (complete main)
Format settings, Endianness : Big
Codec ID : A_AC3
Duration : 2h 5mn
Bit rate mode : Constant
Bit rate : 448 Kbps
Channel(s) : 6 channels
Channel positions : Front: L C R, Side: L R, LFE
Sampling rate : 48.0 KHz
Bit depth : 16 bits
Compression mode : Lossy
Stream size : 403 MiB (7%)
Title : AVO Живов
Language : Russian
Default : No
Forced : No
Audio #5
ID : 5
Format : AC-3
Format/Info : Audio Coding 3
Mode extension : CM (complete main)
Format settings, Endianness : Big
Codec ID : A_AC3
Duration : 2h 5mn
Bit rate mode : Constant
Bit rate : 448 Kbps
Channel(s) : 6 channels
Channel positions : Front: L C R, Side: L R, LFE
Sampling rate : 48.0 KHz
Bit depth : 16 bits
Compression mode : Lossy
Stream size : 403 MiB (7%)
Title : VO Чадов
Language : Russian
Default : No
Forced : No
Audio #6
ID : 6
Format : AC-3
Format/Info : Audio Coding 3
Mode extension : CM (complete main)
Format settings, Endianness : Big
Codec ID : A_AC3
Duration : 2h 5mn
Bit rate mode : Constant
Bit rate : 448 Kbps
Channel(s) : 6 channels
Channel positions : Front: L C R, Side: L R, LFE
Sampling rate : 48.0 KHz
Bit depth : 16 bits
Compression mode : Lossy
Stream size : 403 MiB (7%)
Title : DVO Гланц и Инна Королёва
Language : Russian
Default : No
Forced : No
Audio #7
ID : 7
Format : AC-3
Format/Info : Audio Coding 3
Mode extension : CM (complete main)
Format settings, Endianness : Big
Codec ID : A_AC3
Duration : 2h 5mn
Bit rate mode : Constant
Bit rate : 448 Kbps
Channel(s) : 6 channels
Channel positions : Front: L C R, Side: L R, LFE
Sampling rate : 48.0 KHz
Bit depth : 16 bits
Compression mode : Lossy
Stream size : 403 MiB (7%)
Language : English
Default : No
Forced : No

log x.264

x264 [info]: frame I:2089  Avg QP:13.15  size:124504
x264 [info]: frame P:39598 Avg QP:16.68 size: 46217
x264 [info]: frame B:139128 Avg QP:20.15 size: 13388
x264 [info]: consecutive B-frames: 2.2% 2.4% 7.3% 25.8% 20.2% 34.0% 3.8% 3.5% 0.8%
x264 [info]: mb I I16..4: 7.1% 73.9% 19.0%
x264 [info]: mb P I16..4: 0.8% 17.0% 2.7% P16..4: 24.2% 29.3% 14.5% 3.8% 0.6% skip: 7.1%
x264 [info]: mb B I16..4: 0.1% 2.6% 0.5% B16..8: 31.2% 19.0% 2.8% direct: 7.2% skip:36.7% L0:38.4% L1:39.0% BI:22.6%
x264 [info]: 8x8 transform intra:81.5% inter:49.5%
x264 [info]: coded y,uvDC,uvAC intra: 91.5% 75.1% 47.0% inter: 26.6% 15.8% 3.5%
x264 [info]: i16 v,h,dc,p: 31% 11% 15% 43%
x264 [info]: i8 v,h,dc,ddl,ddr,vr,hd,vl,hu: 14% 13% 9% 7% 10% 10% 11% 11% 14%
x264 [info]: i4 v,h,dc,ddl,ddr,vr,hd,vl,hu: 36% 10% 6% 6% 9% 8% 9% 7% 8%
x264 [info]: i8c dc,h,v,p: 28% 33% 21% 18%
x264 [info]: Weighted P-Frames: Y:3.1% UV:1.5%
x264 [info]: ref P L0: 43.3% 9.9% 20.7% 6.3% 5.9% 3.4% 3.5% 1.6% 1.7% 1.2% 1.3% 1.0% 0.1% 0.0%
x264 [info]: ref B L0: 79.5% 10.4% 3.9% 2.0% 1.2% 1.0% 0.7% 0.5% 0.4% 0.3% 0.1%
x264 [info]: ref B L1: 95.1% 4.9%
x264 [info]: kb/s:4193.17
x264 [total]: encoded 180815 frames, 4.43 fps, 4193.17 kb/s

Скриншоты

Яндекс.Метрика
Рейтинг@Mail.ru