(Author's Song) Александр Розенбаум - De Luxe Collection (2CD) - 2000 [FLAC, image+.cue, lossless]

 

Создавать темы 21-Янв-2015 01:05

-Александр Розенбаум / De Luxe Collection (2CD)-- Год издания: 2000
Страна: Россия
Жанр: Author's Song
Продолжительность: 02:39:31-Лейбл издания: Dream Studio
Тип альбома: Compilation
Страна-выпуска диска: Россия
Номер по каталогу: (!)отсутствует
Формат: FLAC
Битрейт аудио: lossless
Тип рипа: image+.cue
Наличие сканов в содержимом раздачи: да
-

Трэклист

Disc 1 | 01:19:46

01.Транссибирская магистраль (03:54)
02.Размышление на прогулке (04:46)
03.Романс генерала Чарноты (02:45)
04.Зимняя ночь (01:59)
05.Проводы (02:13)
06.Послепобедный вальс (03:11)
07.Вальс-Бостон (03:40)
08.Извозчик (01:46)
09.18 лет спустя (01:59)
10.Песня Красных казаков (03:20)
11.Казачья (только пуля казака) (03:04)
12.Прости-прощай (03:23)
13.38 узлов (02:29)
14.Зойка (02:52)
15.Мы идем любовь искать (03:11)
16.Серый в яблоках конь (03:23)
17.Утки (03:59)
18.Воспоминание о будущем (02:09)
19.Маруся (01:25)
20.Мой двор (02:42)
21.Свадьба (03:35)
22.На улице Марата (03:04)
23.Ленинград-МГА (02:23)
24.Посвящение посвящающим (01:19)
25.У окна (01:01)
26.На плантациях любви (05:07)
27.Ау (04:56)

Disc 2 | 01:19:44

01.Глухари (03:30)
02.Заходите к нам на огонек (02:08)
03.Есаул молоденький (02:35)
04.Налетела грусть (02:36)
05.По снегу, летящему с неба (03:05)
06.Вальс на лебяжьей канавке (03:27)
07.Отслужи мне, отслужи (02:32)
08.Амнистия (02:13)
09.На войне, как на войне (03:09)
10.В 62-м году (04:38)
11.Фотография (02:53)
12.Гоп-Стоп (02:58)
13.Полицмейстер Геловани (01:47)
14.Песня неврапотолога (02:09)
15.Скорая помощь (03:16)
16.Ничего нет невозможного (03:35)
17.Марк Шнейдер был Маркшнейдер (01:57)
18.Ах, эти ночи! (01:18)
19.Лихо, мое лихо! (02:51)
20.Нинка (02:16)
21.Возвращение (03:15)
22.Встану рано по утру (01:59)
23.Супчик из цветной капусты (01:54)
24.Новелла о нотах (02:11)
25.Шилохвость (02:10)
26.Четвертиночка (02:31)
27.Гулливер (02:47)
28.Мы все поймем (01:30)
29.Судьба непростая (02:29)
30.Черный тюльпан (03:52)

Лог создания рипа

CD 1

Exact Audio Copy V1.0 beta 1 from 15. November 2010
Отчёт EAC об извлечении, выполненном 13. марта 2013, 19:00
Александр Розенбаум / De Luxe Collection, Disc 1
Дисковод: ASUS    DRW-24B3ST   Adapter: 0  ID: 1
Режим чтения                 : Достоверность
Использование точного потока : Да
Отключение кэша аудио        : Да
Использование указателей C2  : Нет
Коррекция смещения при чтении                     : 6
Способность читать области Lead-in и Lead-out     : Нет
Заполнение пропущенных сэмплов тишиной            : Да
Удаление блоков с тишиной в начале и конце        : Нет
При вычислениях CRC использовались нулевые сэмплы : Да
Интерфейс                                         : Встроенный Win32-интерфейс для Win NT/2000
Выходной формат          : Пользовательский кодировщик
Выбранный битрейт        : 896 kBit/s
Качество                 : Высокий
Добавление ID3-тэга      : Нет
Утилита сжатия           : C:\Program Files\FLAC\flac.exe
Дополнительные параметры : -T "DATE=%y" -T "GENRE=%m" -8 -V %s
TOC извлечённого CD
Трек |   Старт  | Длительность | Начальный сектор | Конечный сектор
---------------------------------------------------------------------
1  |  0:00.00 |    3:54.63   |           0      |      17612
2  |  3:54.63 |    4:46.43   |       17613      |      39105
3  |  8:41.31 |    2:45.22   |       39106      |      51502
4  | 11:26.53 |    1:59.24   |       51503      |      60451
5  | 13:26.02 |    2:13.23   |       60452      |      70449
6  | 15:39.25 |    3:11.23   |       70450      |      84797
7  | 18:50.48 |    3:40.48   |       84798      |     101345
8  | 22:31.21 |    1:46.03   |      101346      |     109298
9  | 24:17.24 |    1:59.10   |      109299      |     118233
10  | 26:16.34 |    3:20.06   |      118234      |     133239
11  | 29:36.40 |    3:04.55   |      133240      |     147094
12  | 32:41.20 |    3:23.58   |      147095      |     162377
13  | 36:05.03 |    2:29.03   |      162378      |     173555
14  | 38:34.06 |    2:52.67   |      173556      |     186522
15  | 41:26.73 |    3:11.42   |      186523      |     200889
16  | 44:38.40 |    3:23.36   |      200890      |     216150
17  | 48:02.01 |    3:59.50   |      216151      |     234125
18  | 52:01.51 |    2:09.62   |      234126      |     243862
19  | 54:11.38 |    1:25.45   |      243863      |     250282
20  | 55:37.08 |    2:42.13   |      250283      |     262445
21  | 58:19.21 |    3:35.41   |      262446      |     278611
22  | 61:54.62 |    3:04.10   |      278612      |     292421
23  | 64:58.72 |    2:23.41   |      292422      |     303187
24  | 67:22.38 |    1:19.08   |      303188      |     309120
25  | 68:41.46 |    1:01.32   |      309121      |     313727
26  | 69:43.03 |    5:07.38   |      313728      |     336790
27  | 74:50.41 |    4:56.23   |      336791      |     359013
Характеристики диапазона извлечения и сообщения об ошибках
Выбранный диапазон
Имя файла D:\trofim\Александр Розенбаум - De Luxe Collection, Disc 1.wav
Пиковый уровень 96.6 %
0.5 X
Качество диапазона 99.9 %
CRC теста 50F720AF
CRC копии 50F720AF
Копирование... OK
Ошибок не произошло
AccurateRip: сводка
Трек  1  нет в базе данных
Трек  2  нет в базе данных
Трек  3  нет в базе данных
Трек  4  нет в базе данных
Трек  5  нет в базе данных
Трек  6  нет в базе данных
Трек  7  нет в базе данных
Трек  8  нет в базе данных
Трек  9  нет в базе данных
Трек 10  нет в базе данных
Трек 11  нет в базе данных
Трек 12  нет в базе данных
Трек 13  нет в базе данных
Трек 14  нет в базе данных
Трек 15  нет в базе данных
Трек 16  нет в базе данных
Трек 17  нет в базе данных
Трек 18  нет в базе данных
Трек 19  нет в базе данных
Трек 20  нет в базе данных
Трек 21  нет в базе данных
Трек 22  нет в базе данных
Трек 23  нет в базе данных
Трек 24  нет в базе данных
Трек 25  нет в базе данных
Трек 26  нет в базе данных
Трек 27  нет в базе данных
Ни одного трека нет в базе AccurateRip
Конец отчёта

CD 2

Exact Audio Copy V1.0 beta 1 from 15. November 2010
Отчёт EAC об извлечении, выполненном 13. марта 2013, 19:56
Александр Розенбаум / De Luxe Collection, Disc 2
Дисковод: ASUS    DRW-24B3ST   Adapter: 0  ID: 1
Режим чтения                 : Достоверность
Использование точного потока : Да
Отключение кэша аудио        : Да
Использование указателей C2  : Нет
Коррекция смещения при чтении                     : 6
Способность читать области Lead-in и Lead-out     : Нет
Заполнение пропущенных сэмплов тишиной            : Да
Удаление блоков с тишиной в начале и конце        : Нет
При вычислениях CRC использовались нулевые сэмплы : Да
Интерфейс                                         : Встроенный Win32-интерфейс для Win NT/2000
Выходной формат          : Пользовательский кодировщик
Выбранный битрейт        : 896 kBit/s
Качество                 : Высокий
Добавление ID3-тэга      : Нет
Утилита сжатия           : C:\Program Files\FLAC\flac.exe
Дополнительные параметры : -T "DATE=%y" -T "GENRE=%m" -8 -V %s
TOC извлечённого CD
Трек |   Старт  | Длительность | Начальный сектор | Конечный сектор
---------------------------------------------------------------------
1  |  0:00.00 |    3:30.44   |           0      |      15793
2  |  3:30.44 |    2:08.63   |       15794      |      25456
3  |  5:39.32 |    2:35.66   |       25457      |      37147
4  |  8:15.23 |    2:36.34   |       37148      |      48881
5  | 10:51.57 |    3:05.22   |       48882      |      62778
6  | 13:57.04 |    3:27.18   |       62779      |      78321
7  | 17:24.22 |    2:32.30   |       78322      |      89751
8  | 19:56.52 |    2:13.17   |       89752      |      99743
9  | 22:09.69 |    3:09.65   |       99744      |     113983
10  | 25:19.59 |    4:38.35   |      113984      |     134868
11  | 29:58.19 |    2:53.74   |      134869      |     147917
12  | 32:52.18 |    2:58.05   |      147918      |     161272
13  | 35:50.23 |    1:47.41   |      161273      |     169338
14  | 37:37.64 |    2:09.40   |      169339      |     179053
15  | 39:47.29 |    3:16.00   |      179054      |     193753
16  | 43:03.29 |    3:35.73   |      193754      |     209951
17  | 46:39.27 |    1:57.42   |      209952      |     218768
18  | 48:36.69 |    1:18.01   |      218769      |     224619
19  | 49:54.70 |    2:51.43   |      224620      |     237487
20  | 52:46.38 |    2:16.05   |      237488      |     247692
21  | 55:02.43 |    3:15.03   |      247693      |     262320
22  | 58:17.46 |    1:59.37   |      262321      |     271282
23  | 60:17.08 |    1:54.30   |      271283      |     279862
24  | 62:11.38 |    2:11.42   |      279863      |     289729
25  | 64:23.05 |    2:10.40   |      289730      |     299519
26  | 66:33.45 |    2:31.39   |      299520      |     310883
27  | 69:05.09 |    2:47.57   |      310884      |     323465
28  | 71:52.66 |    1:30.15   |      323466      |     330230
29  | 73:23.06 |    2:29.37   |      330231      |     341442
30  | 75:52.43 |    3:52.13   |      341443      |     358855
Характеристики диапазона извлечения и сообщения об ошибках
Выбранный диапазон
Имя файла D:\trofim\Александр Розенбаум - De Luxe Collection, Disc 2.wav
Пиковый уровень 96.6 %
0.4 X
Качество диапазона 99.9 %
CRC теста FF8B10AB
CRC копии FF8B10AB
Копирование... OK
Ошибок не произошло
AccurateRip: сводка
Трек  1  точное извлечение (доверие 1)  [8879D2D4]
Трек  2  точное извлечение (доверие 1)  [34038C18]
Трек  3  точное извлечение (доверие 1)  [60D65AFC]
Трек  4  точное извлечение (доверие 1)  [4FDD512A]
Трек  5  точное извлечение (доверие 1)  [F05110F3]
Трек  6  точное извлечение (доверие 1)  [C1575148]
Трек  7  точность не определена (достоверность 1)  [419F18FB], AccurateRip вернул [A2AB436C]
Трек  8  точное извлечение (доверие 1)  [21A1C6C8]
Трек  9  точное извлечение (доверие 1)  [A4D8D421]
Трек 10  точное извлечение (доверие 1)  [EB821978]
Трек 11  точное извлечение (доверие 1)  [4A36D701]
Трек 12  точное извлечение (доверие 1)  [089D46CA]
Трек 13  точное извлечение (доверие 1)  [224979F0]
Трек 14  точное извлечение (доверие 1)  [5761621B]
Трек 15  точное извлечение (доверие 1)  [5EECFE1D]
Трек 16  точное извлечение (доверие 1)  [E8D9E82B]
Трек 17  точное извлечение (доверие 1)  [03382469]
Трек 18  точное извлечение (доверие 1)  [CD4F5ED9]
Трек 19  точное извлечение (доверие 1)  [CB34A4C4]
Трек 20  точное извлечение (доверие 1)  [3CE08E41]
Трек 21  точное извлечение (доверие 1)  [216178DC]
Трек 22  точное извлечение (доверие 1)  [F2A70852]
Трек 23  точное извлечение (доверие 1)  [85907F8D]
Трек 24  точное извлечение (доверие 1)  [3C5D9430]
Трек 25  точное извлечение (доверие 1)  [6E207B4E]
Трек 26  точное извлечение (доверие 1)  [ECB1BAD2]
Трек 27  точность не определена (достоверность 1)  [EAFFD8FD], AccurateRip вернул [A802DCB6]
Трек 28  точность не определена (достоверность 1)  [2461F9BD], AccurateRip вернул [A6A5605D]
Трек 29  точность не определена (достоверность 1)  [012F68FE], AccurateRip вернул [587A8E61]
Трек 30  точность не определена (достоверность 1)  [556376DF], AccurateRip вернул [2BBD9F59]
25 трек(и) скопированы точно
5 трек(и) не удалось проверить на точность
Некоторые треки не прошли проверку на точность
Конец отчёта

Индексная карта (non-compilant .cue)

CD 1

REM GENRE Other
REM DATE 2000
REM DISCID 9212B21B
REM COMMENT "ExactAudioCopy v1.0b1"
PERFORMER "Александр Розенбаум"
TITLE "De Luxe Collection, Disc 1"
FILE "Александр Розенбаум - De Luxe Collection, Disc 1.flac" WAVE
TRACK 01 AUDIO
TITLE "Транссибирская магистраль"
PERFORMER "Александр Розенбаум"
INDEX 01 00:00:00
TRACK 02 AUDIO
TITLE "Размышление на прогулке"
PERFORMER "Александр Розенбаум"
INDEX 00 03:52:64
INDEX 01 03:54:63
TRACK 03 AUDIO
TITLE "Романс генерала Чарноты"
PERFORMER "Александр Розенбаум"
INDEX 00 08:39:32
INDEX 01 08:41:31
TRACK 04 AUDIO
TITLE "Зимняя ночь"
PERFORMER "Александр Розенбаум"
INDEX 00 11:24:54
INDEX 01 11:26:53
TRACK 05 AUDIO
TITLE "Проводы"
PERFORMER "Александр Розенбаум"
INDEX 00 13:24:03
INDEX 01 13:26:02
TRACK 06 AUDIO
TITLE "Послепобедный вальс"
PERFORMER "Александр Розенбаум"
INDEX 00 15:37:26
INDEX 01 15:39:25
TRACK 07 AUDIO
TITLE "Вальс-Бостон"
PERFORMER "Александр Розенбаум"
INDEX 00 18:48:49
INDEX 01 18:50:48
TRACK 08 AUDIO
TITLE "Извозчик"
PERFORMER "Александр Розенбаум"
INDEX 00 22:29:22
INDEX 01 22:31:21
TRACK 09 AUDIO
TITLE "18 лет спустя"
PERFORMER "Александр Розенбаум"
INDEX 00 24:15:25
INDEX 01 24:17:24
TRACK 10 AUDIO
TITLE "Песня Красных казаков"
PERFORMER "Александр Розенбаум"
INDEX 00 26:14:35
INDEX 01 26:16:34
TRACK 11 AUDIO
TITLE "Казачья (только пуля казака)"
PERFORMER "Александр Розенбаум"
INDEX 00 29:34:41
INDEX 01 29:36:40
TRACK 12 AUDIO
TITLE "Прости-прощай"
PERFORMER "Александр Розенбаум"
INDEX 00 32:39:21
INDEX 01 32:41:20
TRACK 13 AUDIO
TITLE "38 узлов"
PERFORMER "Александр Розенбаум"
INDEX 00 36:03:04
INDEX 01 36:05:03
TRACK 14 AUDIO
TITLE "Зойка"
PERFORMER "Александр Розенбаум"
INDEX 00 38:32:07
INDEX 01 38:34:06
TRACK 15 AUDIO
TITLE "Мы идем любовь искать"
PERFORMER "Александр Розенбаум"
INDEX 00 41:24:74
INDEX 01 41:26:73
TRACK 16 AUDIO
TITLE "Серый в яблоках конь"
PERFORMER "Александр Розенбаум"
INDEX 00 44:36:41
INDEX 01 44:38:40
TRACK 17 AUDIO
TITLE "Утки"
PERFORMER "Александр Розенбаум"
INDEX 00 48:00:02
INDEX 01 48:02:01
TRACK 18 AUDIO
TITLE "Воспоминание о будущем"
PERFORMER "Александр Розенбаум"
INDEX 00 51:59:52
INDEX 01 52:01:51
TRACK 19 AUDIO
TITLE "Маруся"
PERFORMER "Александр Розенбаум"
INDEX 00 54:09:39
INDEX 01 54:11:38
TRACK 20 AUDIO
TITLE "Мой двор"
PERFORMER "Александр Розенбаум"
INDEX 00 55:35:09
INDEX 01 55:37:08
TRACK 21 AUDIO
TITLE "Свадьба"
PERFORMER "Александр Розенбаум"
INDEX 00 58:17:22
INDEX 01 58:19:21
TRACK 22 AUDIO
TITLE "На улице Марата"
PERFORMER "Александр Розенбаум"
INDEX 00 61:52:63
INDEX 01 61:54:62
TRACK 23 AUDIO
TITLE "Ленинград-МГА"
PERFORMER "Александр Розенбаум"
INDEX 00 64:56:73
INDEX 01 64:58:72
TRACK 24 AUDIO
TITLE "Посвящение посвящающим"
PERFORMER "Александр Розенбаум"
INDEX 00 67:20:39
INDEX 01 67:22:38
TRACK 25 AUDIO
TITLE "У окна"
PERFORMER "Александр Розенбаум"
INDEX 00 68:39:47
INDEX 01 68:41:46
TRACK 26 AUDIO
TITLE "На плантациях любви"
PERFORMER "Александр Розенбаум"
INDEX 00 69:41:04
INDEX 01 69:43:03
TRACK 27 AUDIO
TITLE "Ау"
PERFORMER "Александр Розенбаум"
INDEX 00 74:48:42
INDEX 01 74:50:41

CD 2

REM GENRE Other
REM DATE 2000
REM DISCID D512B01E
REM COMMENT "ExactAudioCopy v1.0b1"
PERFORMER "Александр Розенбаум"
TITLE "De Luxe Collection, Disc 2"
FILE "Александр Розенбаум - De Luxe Collection, Disc 2.flac" WAVE
TRACK 01 AUDIO
TITLE "Глухари"
PERFORMER "Александр Розенбаум"
INDEX 01 00:00:00
TRACK 02 AUDIO
TITLE "Заходите к нам на огонек"
PERFORMER "Александр Розенбаум"
INDEX 00 03:28:45
INDEX 01 03:30:44
TRACK 03 AUDIO
TITLE "Есаул молоденький"
PERFORMER "Александр Розенбаум"
INDEX 00 05:37:33
INDEX 01 05:39:32
TRACK 04 AUDIO
TITLE "Налетела грусть"
PERFORMER "Александр Розенбаум"
INDEX 00 08:13:24
INDEX 01 08:15:23
TRACK 05 AUDIO
TITLE "По снегу, летящему с неба"
PERFORMER "Александр Розенбаум"
INDEX 00 10:49:58
INDEX 01 10:51:57
TRACK 06 AUDIO
TITLE "Вальс на лебяжьей канавке"
PERFORMER "Александр Розенбаум"
INDEX 00 13:55:05
INDEX 01 13:57:04
TRACK 07 AUDIO
TITLE "Отслужи мне, отслужи"
PERFORMER "Александр Розенбаум"
INDEX 00 17:22:23
INDEX 01 17:24:22
TRACK 08 AUDIO
TITLE "Амнистия"
PERFORMER "Александр Розенбаум"
INDEX 00 19:54:53
INDEX 01 19:56:52
TRACK 09 AUDIO
TITLE "На войне, как на войне"
PERFORMER "Александр Розенбаум"
INDEX 00 22:07:70
INDEX 01 22:09:69
TRACK 10 AUDIO
TITLE "В 62-м году"
PERFORMER "Александр Розенбаум"
INDEX 00 25:17:60
INDEX 01 25:19:59
TRACK 11 AUDIO
TITLE "Фотография"
PERFORMER "Александр Розенбаум"
INDEX 00 29:56:20
INDEX 01 29:58:19
TRACK 12 AUDIO
TITLE "Гоп-Стоп"
PERFORMER "Александр Розенбаум"
INDEX 00 32:50:19
INDEX 01 32:52:18
TRACK 13 AUDIO
TITLE "Полицмейстер Геловани"
PERFORMER "Александр Розенбаум"
INDEX 00 35:48:24
INDEX 01 35:50:23
TRACK 14 AUDIO
TITLE "Песня неврапотолога"
PERFORMER "Александр Розенбаум"
INDEX 00 37:35:65
INDEX 01 37:37:64
TRACK 15 AUDIO
TITLE "Скорая помощь"
PERFORMER "Александр Розенбаум"
INDEX 00 39:45:30
INDEX 01 39:47:29
TRACK 16 AUDIO
TITLE "Ничего нет невозможного"
PERFORMER "Александр Розенбаум"
INDEX 00 43:01:30
INDEX 01 43:03:29
TRACK 17 AUDIO
TITLE "Марк Шнейдер был Маркшнейдер"
PERFORMER "Александр Розенбаум"
INDEX 00 46:37:29
INDEX 01 46:39:27
TRACK 18 AUDIO
TITLE "Ах, эти ночи!"
PERFORMER "Александр Розенбаум"
INDEX 00 48:34:70
INDEX 01 48:36:69
TRACK 19 AUDIO
TITLE "Лихо, мое лихо!"
PERFORMER "Александр Розенбаум"
INDEX 00 49:52:71
INDEX 01 49:54:70
TRACK 20 AUDIO
TITLE "Нинка"
PERFORMER "Александр Розенбаум"
INDEX 00 52:44:39
INDEX 01 52:46:38
TRACK 21 AUDIO
TITLE "Возвращение"
PERFORMER "Александр Розенбаум"
INDEX 00 55:00:44
INDEX 01 55:02:43
TRACK 22 AUDIO
TITLE "Встану рано по утру"
PERFORMER "Александр Розенбаум"
INDEX 00 58:15:47
INDEX 01 58:17:46
TRACK 23 AUDIO
TITLE "Супчик из цветной капусты"
PERFORMER "Александр Розенбаум"
INDEX 00 60:15:09
INDEX 01 60:17:08
TRACK 24 AUDIO
TITLE "Новелла о нотах"
PERFORMER "Александр Розенбаум"
INDEX 00 62:09:39
INDEX 01 62:11:38
TRACK 25 AUDIO
TITLE "Шилохвость"
PERFORMER "Александр Розенбаум"
INDEX 00 64:21:06
INDEX 01 64:23:05
TRACK 26 AUDIO
TITLE "Четвертиночка"
PERFORMER "Александр Розенбаум"
INDEX 00 66:31:46
INDEX 01 66:33:45
TRACK 27 AUDIO
TITLE "Гулливер"
PERFORMER "Александр Розенбаум"
INDEX 00 69:03:10
INDEX 01 69:05:09
TRACK 28 AUDIO
TITLE "Мы все поймем"
PERFORMER "Александр Розенбаум"
INDEX 00 71:50:67
INDEX 01 71:52:66
TRACK 29 AUDIO
TITLE "Судьба непростая"
PERFORMER "Александр Розенбаум"
INDEX 00 73:21:07
INDEX 01 73:23:06
TRACK 30 AUDIO
TITLE "Черный тюльпан"
PERFORMER "Александр Розенбаум"
INDEX 00 75:50:44
INDEX 01 75:52:43

Лог Audiochecker

CD 1

AUDIOCHECKER v2.0 beta (build 457) - by Dester - [email protected]
~~~~~~~~~~~~~~~~~~~~~~~~~~~~~~~~~~
Started at: вторник, 20. 01. 2015. - 20:41.14
1 file found
1 -===- D:\Torrent files\Александр Розенбаум - De Luxe Collection (2CD) 2000 flac\Disc 1\Александр Розенбаум - De Luxe Collection, Disc 1.flac
Extracted successfully
Conclusion: this track is CDDA with probability 99%
Tempfile successfully deleted.
Finished at: вторник, 20. 01. 2015. - 20:44.55 (operation time: 0:03.40)

CD 2

AUDIOCHECKER v2.0 beta (build 457) - by Dester - [email protected]
~~~~~~~~~~~~~~~~~~~~~~~~~~~~~~~~~~
Started at: вторник, 20. 01. 2015. - 21:02.42
1 file found
1 -===- D:\Torrent files\Александр Розенбаум - De Luxe Collection (2CD) 2000 flac\Disc 2\Александр Розенбаум - De Luxe Collection, Disc 2.flac
Extracted successfully
Conclusion: this track is CDDA with probability 100%
Tempfile successfully deleted.
Finished at: вторник, 20. 01. 2015. - 21:06.33 (operation time: 0:03.50)

Скриншот спектра частот

--Не забываем говорить
Яндекс.Метрика
Рейтинг@Mail.ru