Сюрприз для любимого (2014) HDTV [1080i]

 

Создавать темы 20-Янв-2015 22:52

-Сюрприз для любимого (2014) HDTV [1080i]- Страна: Россия
Производство: Россия / кинокомпания «Русское»
Жанр: Мелодрама
Режиссер: Андрей Селиванов
В ролях: Анна Невская, Эдуард Трухменёв, Ирина Антоненко, Диана Енакаева, Евгения Каверау, Андрей Биланов, Михаил Ремизов, Анжелика Пашкова
Описание фильма:
Юля - идеальная жена, домохозяйка и мать двух очаровательных девочек. Самозабвенная забота о любимом муже Алексее, маленьких дочерях и доме наполняет всю ее жизнь, и эта жизнь ее вполне устраивает. Но семейная идиллия разрушается в один момент: невольно Юля узнает о любовной связи Алексея с другой женщиной. И ее жизнь, такая отлаженная и, казалось, незыблемая, превращается в кошмар... Случайное знакомство с успешным бизнесменом Николаем помогает Юле вновь обрести себя и поверить в свои силы. Преодолевая боль от предательства мужа, Юля меняет свою жизнь и меняется сама. Теперь это ухоженная и женственная, умная и предприимчивая, успешная и уверенная в себе женщина - о такой можно только мечтать. Но любит Юля по-прежнему только Алексея, от которого ушла...

Дата российской премьеры: 1 ноября 2014
Продолжительность: 01:31:17
Качество видео: HDTV [1080i]
Формат файла: MPEG-TS
Видеокодек: MPEG-4 / AVC
Битрейт видео: ~ 7795 kbps avg
Размер кадра: 1920x1080, 25 fps
Аудиокодек: МР2, 2 ch
Битрейт аудио: 256 kbps

Благодарности:

Большое СПАСИБО человеку под ником Nikolspup за предоставление исходника

MediaInfo:

Общее
Идентификатор : 1 (0x1)
Полное имя : D:\СЮРПРИЗ ДЛЯ ЛЮБИМОГО\Syurpriz.dlya.Lyubimogo.2014.HDTV.(1080i).ts
Формат : MPEG-TS
Размер файла : 4,97 Гбайт
Продолжительность : 1 ч. 31 м.
Режим общего битрейта : Переменный
Общий поток : 7795 Кбит/сек
Видео
Идентификатор : 4113 (0x1011)
Идентификатор меню : 1 (0x1)
Формат : AVC
Формат/Информация : Advanced Video Codec
Профиль формата : [url=mailto:[email protected]][email protected][/url]
Параметр CABAC формата : Да
Параметр ReFrames формата : 4 кадра
Параметр GOP формата : M=4, N=32
Идентификатор кодека : 27
Продолжительность : 1 ч. 31 м.
Вид битрейта : Переменный
Битрейт : 7152 Кбит/сек
Максимальный битрейт : 40,0 Мбит/сек
Ширина : 1920 пикселей
Высота : 1080 пикселей
Соотношение сторон : 16:9
Частота кадров : 25,000 кадров/сек
Цветовое пространство : YUV
Субдискретизация насыщенности : 4:2:0
Битовая глубина : 8 бит
Тип развёртки : MBAFF
Бит/(Пиксели*Кадры) : 0.138
Размер потока : 4,56 Гбайт (92%)
Аудио
Идентификатор : 4352 (0x1100)
Идентификатор меню : 1 (0x1)
Формат : MPEG Audio
Версия формата : Version 1
Профиль формата : Layer 2
Идентификатор кодека : 3
Продолжительность : 1 ч. 31 м.
Вид битрейта : Постоянный
Битрейт : 256 Кбит/сек
Каналы : 2 канала
Частота : 48,0 КГц
Метод сжатия : С потерями
Размер потока : 167 Мбайт (3%)
Язык : Russian
Скриншоты:

-
Время раздачи: 24/7 до первых 5 скачавших.
Яндекс.Метрика
Рейтинг@Mail.ru