Мамы 3 (2014) DVB

 

Создавать темы 19-Янв-2015 09:33

-Мамы 3 (2014) DVB- Производство: Россия, "Enjoy Movies"
Жанр: Комедия, Семейный-Описание фильма:
31 декабря наши Мамы вместо того, чтобы резать оливье и смотреть «Иронию Судьбы», летят в Прагу праздновать Новый Год «по-европейски». Но самолет из-за погодных условий вынужден приземлиться в аэропорту небольшого, но очень красивого и уютного польского городка. Город встречает Мам абсолютно пустыми улицами. Новый Год для местных жителей- спокойный праздник. Наших Мам и их попутчиков это категорически не устраивает, и они решают устроить в этой «провинциальной Европе» настоящий, безбашенный Новый Год «по-нашему»… Дело за малым — найти Деда Мороза, Советское шампанское, оливье, петарды… в общем, всё, что нужно для праздника!-Режиссер: Георгий Малков, Эмиль Никогосян
Актеры: Гарик Харламов, Ольга Волкова, Мария Сёмкина, Андрей Ургант, Евгений Шапошников, Артём Киселёв, Кристина Орса, Анастасия Заворотнюк, Тимур Родригез, Евгений Сморигин, Захар Соколов
Перевод: Не требуется (русский)
Субтитры: отсутствуют

Дата мировой премьеры: 25 декабря 2014
Дата российской премьеры: 25 декабря 2014
Продолжительность: 01:24:10
Качество видео: DVB
Формат: MPEG-TS
Видеокодек: MPEG-2
Битрейт видео: ~4030 kb/s
Размер кадра: 720x576
Аудио 1 Русский: АС3, 6 ch, 448 kb/s
Аудио 2 Русский: MP2, 2 ch, 192 kb/s

Mediainfo:

Общее
Идентификатор : 11 (0xB)
Полное имя : Mamy.3.2014.DVB.ts
Формат : MPEG-TS
Размер файла : 3,15 Гбайт
Продолжительность : 1 ч. 31 м.
Режим общего битрейта : Переменный
Общий поток : 4920 Кбит/сек
Видео
Идентификатор : 326 (0x146)
Идентификатор меню : 11106 (0x2B62)
Формат : MPEG Video
Версия формата : Version 2
Профиль формата : [email protected]
Параметр BVOP формата : Да
Параметр матрицы формата : Выборочная
Параметр GOP формата : Variable
Идентификатор кодека : 2
Продолжительность : 1 ч. 31 м.
Вид битрейта : Переменный
Битрейт : 4030 Кбит/сек
Максимальный битрейт : 15,0 Мбит/сек
Ширина : 720 пикселей
Высота : 576 пикселей
Соотношение сторон : 16:9
Частота кадров : 25,000 кадров/сек
Стандарт вещания : PAL
Цветовое пространство : YUV
Субдискретизация насыщенности : 4:2:0
Битовая глубина : 8 бит
Тип развёртки : Чересстрочная
Порядок развёртки : Верхнее поле первое
Метод сжатия : С потерями
Бит/(Пиксели*Кадры) : 0.389
Размер потока : 2,58 Гбайт (82%)
Аудио #1
Идентификатор : 406 (0x196)
Идентификатор меню : 11106 (0x2B62)
Формат : MPEG Audio
Версия формата : Version 1
Профиль формата : Layer 2
Идентификатор кодека : 4
Продолжительность : 1 ч. 31 м.
Вид битрейта : Постоянный
Битрейт : 192 Кбит/сек
Каналы : 2 канала
Частота : 48,0 КГц
Метод сжатия : С потерями
Задержка видео : -383 мс.
Размер потока : 126 Мбайт (4%)
Язык : Russian
Язык, дополнительно : Clean effects
Аудио #2
Идентификатор : 426 (0x1AA)
Идентификатор меню : 11106 (0x2B62)
Формат : AC-3
Формат/Информация : Audio Coding 3
Расширение режима : CM (complete main)
Параметр Endianness формата : Big
Идентификатор кодека : 6
Продолжительность : 1 ч. 31 м.
Вид битрейта : Постоянный
Битрейт : 448 Кбит/сек
Каналы : 6 каналов
Расположение каналов : Front: L C R, Side: L R, LFE
Частота : 48,0 КГц
Битовая глубина : 16 бит
Метод сжатия : С потерями
Задержка видео : -436 мс.
Размер потока : 294 Мбайт (9%)
Язык : Russian
Язык, дополнительно : Clean effects
Меню
Идентификатор : 3306 (0xCEA)
Идентификатор меню : 11106 (0x2B62)
Продолжительность : 1 ч. 31 м.
Список : 326 (0x146) (MPEG Video) / 406 (0x196) (MPEG Audio, Russian) / 426 (0x1AA) (AC-3, Russian)
Язык : / Russian / Russian
Скриншоты:
-Время раздачи: 24/7 до первых 5 скачавших
Яндекс.Метрика
Рейтинг@Mail.ru