Как меня зовут (2014) WEBRip

 

Создавать темы 19-Янв-2015 09:29

-Как меня зовут (2014) WEBRip- Производство: Россия, Профит
Жанр: Драма-Режиссер: Нигина Сайфуллаева
Продюсер: Игорь Толстунов, Сергей Козлов, Сергей Корнихин
Актеры: Константин Лавроненко, Александра Бортич, Марина Васильева, Кирилл Каганович, Анна Котова-Описание фильма:
17-летние москвички Оля и Саша отправляются в Крым, чтобы познакомиться с Олиным отцом Сергеем. Сергей всю жизнь прожил в маленьком приморском поселке и никогда не видел свою единственную дочь. На пороге его дома Оля пугается предстоящей встречи и просит Сашу «поменяться местами». Саша представляется Олей, то есть дочерью, а Оля выдает себя за ее подружку. Поначалу этот розыгрыш забавляет девчонок, но они не подозревают, что невинная шутка обернётся драмой и перевернет жизнь всех ее участников.-Перевод: Не требуется (русский)
Субтитры: Отсутствуют

Возраст: 18+
Дата мировой премьеры: 22 сентября 2014
Дата российской премьеры: 27 ноября 2014, «Наше Кино»
Продолжительность: 01:26:54
Качество видео: WEBRip
Видеокодек: XviD
Битрейт видео: 1859 kb/s
Размер кадра: 720x400
Аудиокодек: AC3 2.0
Битрейт аудио: 384 kb/s
Сэмпл: Скачать

MI

Общее
Полное имя : D:\Раздачи\Как.меня.зовут.2014.WEBRip.NNM-CLUB.avi
Формат : AVI
Формат/Информация : Audio Video Interleave
Размер файла : 1,37 Гбайт
Продолжительность : 1 ч. 26 м.
Общий поток : 2253 Кбит/сек
Программа кодирования : VirtualDubMod 1.5.10.3 | (build 2550/release)
Библиотека кодирования : VirtualDubMod build 2550/release
Видео
Идентификатор : 0
Формат : MPEG-4 Visual
Профиль формата : Advanced [email protected]
Параметр BVOP формата : 2
Параметр QPel формата : Нет
Параметр GMC формата : Без точки перехода
Параметр матрицы формата : Default (MPEG)
Идентификатор кодека : XVID
Идентификатор кодека/Подсказка : XviD
Продолжительность : 1 ч. 26 м.
Битрейт : 1859 Кбит/сек
Ширина : 720 пикселей
Высота : 400 пикселей
Соотношение сторон : 16:9
Частота кадров : 25,000 кадров/сек
Цветовое пространство : YUV
Субдискретизация насыщенности : 4:2:0
Битовая глубина : 8 бит
Тип развёртки : Прогрессивная
Метод сжатия : С потерями
Бит/(Пиксели*Кадры) : 0.258
Размер потока : 1,13 Гбайт (83%)
Библиотека кодирования : XviD 1.2.1 (UTC 2008-12-04)
Аудио
Идентификатор : 1
Формат : AC-3
Формат/Информация : Audio Coding 3
Расширение режима : CM (complete main)
Параметр Endianness формата : Big
Идентификатор кодека : 2000
Продолжительность : 1 ч. 26 м.
Вид битрейта : Постоянный
Битрейт : 384 Кбит/сек
Каналы : 2 канала
Расположение каналов : Front: L R
Частота : 44,1 КГц
Битовая глубина : 16 бит
Метод сжатия : С потерями
Размер потока : 239 Мбайт (17%)
Выравнивание : Разделение по промежуткам
Продолжительность промежутка : 40 мс. (1,00 видеокадр)
Время предзагрузки промежутка : 500 мс.
-Скриншоты:--Время раздачи: 24/7,
до 5 скачавших.
Яндекс.Метрика
Рейтинг@Mail.ru