[ Сегодня на трекере фрилич! Идет свободное скачивание без начисления Download ]

Драка в Бэттл Крик / The Big Brawl (Роберт Клауз / Robert Clouse) [1980 г., Боевик, комедия, BDRip, 720p] AVO (Гаврилов, Володарский) + original (Eng)

 

Создавать темы 19-Янв-2015 05:07

Драка в Бэттл Крик / The Big Brawl
Год выпуска: 1980
Производство: США, Гонконг
Жанр: Боевик, комедия
Продолжительность: 01:35:52
Перевод: Авторский (одноголосый, закадровый) Андрей Гаврилов
Перевод: Авторский (одноголосый, закадровый) Леонид Володарский
Оригинальный аудиопоток: английский
Субтитры: отсутствуют
Режиссер: Роберт Клауз / Robert Clouse
В ролях: Джеки Чан, Хосе Феррер, Кристин ДеБелл, Мако, Рон Макс, Дэвид Шайнер, Розалинд Чао, Ленни Монтана, Пэт Э. Джонсон, Мэри Эллен О’Нил...
Описание: Чикаго 30-х годов. Количество преступников растет, как на дрожжах. Корейского эмигранта Джерри Квана занесла судьба в Чикаго, где человеку с азиатской внешностью найти приличную работу было практически невозможно. Но добрые люди познакомили Джерри с мистером Доменичи, влиятельным гангстером, которого покорило умение Джерри вести рукопашный бой. Доменичи как раз ищет подходящего парня для подпольного турнира «боев без правил»…
, КиноПоиск
Качество видео: BDRip
Контейнер: MKV
Стандарт разрешения: 720p
Видео кодек: H.264
Аудио кодек: AC3
Видео: 1280x544, 23.976fps, 8604 Kbps, 0.515 bt/px
Аудио : AC-3, 192 Kbps, 2 ch, 48.0 KHz Rus Гаврилов
Аудио : AC-3, 192 Kbps, 2 ch, 48.0 KHz Rus Володарский
Аудио : AC-3, 192 Kbps, 2 ch, 48.0 KHz Eng Original

Media Info

G:\загрузки\The Big Brawl.mkv
General
Unique ID : 230904099820829754949028002182868011577 (0xADB68313432F678C92E55A7BB8BC8A39)
Complete name : G:\загрузки\The Big Brawl.mkv
Format : Matroska
Format version : Version 1
File size : 6.27 GiB
Duration : 1h 35mn
Overall bit rate : 9 366 Kbps
Encoded date : UTC 2015-01-18 09:33:44
Writing application : mkvmerge v2.5.3 ('Boogie') built on Mar 7 2009 15:00:41
Writing library : libebml v0.7.7 + libmatroska v0.8.1
Video #1
ID : 1
Format : AVC
Format/Info : Advanced Video Codec
Format profile : [email protected]
Format settings, CABAC : Yes
Format settings, ReFrames : 12 frames
Codec ID : V_MPEG4/ISO/AVC
Duration : 1h 35mn
Bit rate : 8 604 Kbps
Width : 1 280 pixels
Height : 544 pixels
Display aspect ratio : 2.35:1
Frame rate mode : Constant
Frame rate : 23.976 fps
Color space : YUV
Chroma subsampling : 4:2:0
Bit depth : 8 bits
Scan type : Progressive
Bits/(Pixel*Frame) : 0.515
Stream size : 5.76 GiB (92%)
Writing library : x264 core 130 r2273 b3065e6
Encoding settings : cabac=1 / ref=12 / deblock=1:-2:-1 / analyse=0x3:0x133 / me=umh / subme=11 / psy=1 / psy_rd=1.00:0.05 / mixed_ref=1 / me_range=32 / chroma_me=1 / trellis=2 / 8x8dct=1 / cqm=0 / deadzone=21,11 / fast_pskip=1 / chroma_qp_offset=-3 / threads=6 / lookahead_threads=1 / sliced_threads=0 / nr=0 / decimate=1 / interlaced=0 / bluray_compat=0 / constrained_intra=0 / bframes=8 / b_pyramid=2 / b_adapt=2 / b_bias=0 / direct=1 / weightb=1 / open_gop=0 / weightp=2 / keyint=250 / keyint_min=23 / scenecut=40 / intra_refresh=0 / rc_lookahead=50 / rc=crf / mbtree=1 / crf=16.0 / qcomp=0.60 / qpmin=0 / qpmax=51 / qpstep=4 / ip_ratio=1.40 / aq=1:1.00
Language : English
Default : Yes
Forced : No
Audio #2
ID : 2
Format : AC-3
Format/Info : Audio Coding 3
Mode extension : CM (complete main)
Format settings, Endianness : Big
Codec ID : A_AC3
Duration : 1h 35mn
Bit rate mode : Constant
Bit rate : 192 Kbps
Channel(s) : 2 channels
Channel positions : Front: L R
Sampling rate : 48.0 KHz
Bit depth : 16 bits
Compression mode : Lossy
Stream size : 132 MiB (2%)
Title : AVO Гаврилов
Language : Russian
Default : Yes
Forced : No
Audio #3
ID : 3
Format : AC-3
Format/Info : Audio Coding 3
Mode extension : CM (complete main)
Format settings, Endianness : Big
Codec ID : A_AC3
Duration : 1h 35mn
Bit rate mode : Constant
Bit rate : 192 Kbps
Channel(s) : 2 channels
Channel positions : Front: L R
Sampling rate : 48.0 KHz
Bit depth : 16 bits
Compression mode : Lossy
Stream size : 132 MiB (2%)
Title : AVO Володарский
Language : Russian
Default : No
Forced : No
Audio #4
ID : 4
Format : AC-3
Format/Info : Audio Coding 3
Mode extension : CM (complete main)
Format settings, Endianness : Big
Codec ID : A_AC3
Duration : 1h 35mn
Bit rate mode : Constant
Bit rate : 192 Kbps
Channel(s) : 2 channels
Channel positions : Front: L R
Sampling rate : 48.0 KHz
Bit depth : 16 bits
Compression mode : Lossy
Stream size : 132 MiB (2%)
Language : English
Default : No
Forced : No

log x.264

x264 [info]: frame I:950   Avg QP:15.06  size:123393
x264 [info]: frame P:27264 Avg QP:18.25 size: 64347
x264 [info]: frame B:109673 Avg QP:20.45 size: 40536
x264 [info]: consecutive B-frames: 1.1% 0.9% 4.0% 26.1% 15.5% 32.6% 8.2% 5.2% 6.4%
x264 [info]: mb I I16..4: 2.1% 82.9% 15.0%
x264 [info]: mb P I16..4: 0.3% 36.5% 2.4% P16..4: 20.2% 26.8% 11.8% 1.0% 0.0% skip: 1.0%
x264 [info]: mb B I16..4: 0.0% 15.0% 0.3% B16..8: 30.5% 25.9% 7.7% direct:13.0% skip: 7.6% L0:43.2% L1:34.6% BI:22.2%
x264 [info]: 8x8 transform intra:95.5% inter:73.1%
x264 [info]: coded y,uvDC,uvAC intra: 98.9% 92.4% 71.7% inter: 70.6% 54.1% 10.7%
x264 [info]: i16 v,h,dc,p: 54% 14% 6% 27%
x264 [info]: i8 v,h,dc,ddl,ddr,vr,hd,vl,hu: 9% 7% 6% 10% 16% 14% 11% 13% 13%
x264 [info]: i4 v,h,dc,ddl,ddr,vr,hd,vl,hu: 10% 6% 2% 9% 18% 17% 13% 13% 12%
x264 [info]: i8c dc,h,v,p: 41% 23% 17% 18%
x264 [info]: Weighted P-Frames: Y:12.8% UV:4.9%
x264 [info]: ref P L0: 32.7% 9.4% 16.1% 9.5% 7.4% 5.9% 5.0% 3.3% 2.9% 2.6% 2.4% 2.3% 0.4% 0.0%
x264 [info]: ref B L0: 66.0% 12.9% 6.8% 3.8% 2.9% 2.3% 1.9% 1.3% 1.1% 0.7% 0.3%
x264 [info]: ref B L1: 91.0% 9.0%
x264 [info]: kb/s:8787.61
x264 [total]: encoded 137887 frames, 3.18 fps, 8787.61 kb/s

Скриншоты

Яндекс.Метрика
Рейтинг@Mail.ru