Срам-ТВ / Swearnet: The Movie (Уоррен П. Сонода / Warren P. Sonoda) [2014 г., комедия, WEB-DL, 720p] VO [Яроцкий]

 

Создавать темы 19-Янв-2015 04:53

-Срам-ТВ / Swearnet: The Movie-«Because people [email protected] swear»--
Производство: Канада
Год выпуска: 2014 г.
Жанр: комедия
Продолжительность: 01:51:52
Мировая премьера: 29 августа 2014
Перевод: Любительский (одноголосый, закадровый) [Михаил Яроцкий]
Режиссер: Уоррен П. Сонода / Warren P. Sonoda-В ролях: Робб Уэллс, Джон Пол Тремблэ, Майк Смит, Патрик Роач, Том Грин, Скотт «Кэррот Топ» Томпсон, Мишель Морган, Сара Юргенс, Шеннон Леруа, Дэна Вудс-Описание: Веселая троица друзей - Майк Смит, Джон Пол Трембле и Робб Уэллс - работают на национальном канадском телевидении. Но руководству канала изрядно надоели их выходки, выходящие за рамки цензуры. Их увольняют. Тогда друзья решают создать свой собственный интернет-канал, на котором они будут вещать все то, что им раньше запрещали. Безумные выходки и рьяная брань находят свою многочисленную аудиторию...
-
Качество видео: WEB-DL
Контейнер: MKV
Стандарт разрешения: 720p
Видео кодек: H.264
Аудио кодек: AC3
Видео: 1280x718; 3866 kbps; 23.976 fps
Аудио: 384 Kbps; 6 ch; 48.0 kHz

Media Info

General
Unique ID : 236315921941391387936828682752380878985 (0xB1C8CA819CF999EB9D8DBC2E1FA7C089)
Complete name : D:\Torrents\Swearnet.The.Movie.720p.Kyberpunk.mkv
Format : Matroska
Format version : Version 4 / Version 2
File size : 3.39 GiB
Duration : 1h 51mn
Overall bit rate : 4 337 Kbps
Encoded date : UTC 2015-01-18 12:30:52
Writing application : mkvmerge v6.0.0 ('Coming Up For Air') built on Jan 20 2013 09:52:00
Writing library : libebml v1.3.0 + libmatroska v1.4.0
Attachements : Poster.jpg
Video
ID : 1
Format : AVC
Format/Info : Advanced Video Codec
Format profile : [email protected]
Format settings, CABAC : No
Format settings, ReFrames : 2 frames
Codec ID : V_MPEG4/ISO/AVC
Duration : 1h 51mn
Bit rate : 3 866 Kbps
Width : 1 280 pixels
Height : 718 pixels
Display aspect ratio : 16:9
Frame rate mode : Constant
Frame rate : 23.976 fps
Color space : YUV
Chroma subsampling : 4:2:0
Bit depth : 8 bits
Scan type : Progressive
Bits/(Pixel*Frame) : 0.175
Stream size : 3.02 GiB (89%)
Title : x264
Language : English
Default : Yes
Forced : No
Color primaries : BT.709
Transfer characteristics : BT.709
Matrix coefficients : BT.709
Color range : Limited
Audio
ID : 2
Format : AC-3
Format/Info : Audio Coding 3
Mode extension : CM (complete main)
Format settings, Endianness : Big
Codec ID : A_AC3
Duration : 1h 51mn
Bit rate mode : Constant
Bit rate : 384 Kbps
Channel(s) : 6 channels
Channel positions : Front: L C R, Side: L R, LFE
Sampling rate : 48.0 KHz
Bit depth : 16 bits
Compression mode : Lossy
Stream size : 307 MiB (9%)
Title : AVO Kyberpunk
Language : Russian
Default : Yes
Forced : No
- -
Яндекс.Метрика
Рейтинг@Mail.ru