[ Сегодня на трекере фрилич! Идет свободное скачивание без начисления Download ]

8-Bit Operators - The Music Of Kraftwerk (2007) FLAC

 

Создавать темы 18-Янв-2015 14:54

-8-Bit Operators - The Music Of Kraftwerk (2007)- Жанр: Electronic
Год выпуска диска: 2007
Производитель диска: USA
Аудио кодек: FLAC
Тип рипа: image+.cue
Битрейт аудио: lossless
Продолжительность: 01:00:48-Треклист:
01 - Bacalao - The Robots (Die Roboter)
02 - Glomag - Pocket Calculator
03 - Covox - Computer Love
04 - Role Model - Showroom Dummies
05 - Nullsleep - The Model
06 - David E Sugar - Radioactivity
07 - Oliver Wittchow - Kristallo
08 - 8-Bit Weapon - Spacelab
09 - firestARTer - Computer World (Computerwelt)
10 - Neotericz - Electric Cafe
11 - Receptors - Trans-Europe Express
12 - Herbert Weixelbaum - Tanzmusik
13 - Bubblyfish - It's More Fun To Compute
14 - Bit Shifter - Antenna
15 - gwEm and Counter Reset - The Man-Machine (Die Mensch-Maschine)

Отчёт ЕАС

Exact Audio Copy V0.99 prebeta 4 from 23. January 2008
EAC extraction logfile from 4. August 2008, 17:25
Various / 8-Bit Operators - The Music Of Kraftwerk
Used drive : _NEC DVD_RW ND-4570A Adapter: 1 ID: 0
Read mode : Secure
Utilize accurate stream : Yes
Defeat audio cache : Yes
Make use of C2 pointers : No
Read offset correction : 48
Overread into Lead-In and Lead-Out : No
Fill up missing offset samples with silence : Yes
Delete leading and trailing silent blocks : No
Null samples used in CRC calculations : Yes
Used interface : Native Win32 interface for Win NT & 2000
Used output format : User Defined Encoder
Selected bitrate : 1024 kBit/s
Quality : High
Add ID3 tag : No
Command line compressor : C:Program FilesExact Audio CopyFLACFLAC.EXE
Additional command line options : -6 -V -T "ARTIST=%a" -T "TITLE=%t" -T "ALBUM=%g" -T "DATE=%y" -T "TRACKNUMBER=%n" -T "GENRE=%m" -T "COMMENT=%e" %s -o %d
TOC of the extracted CD
Track | Start | Length | Start sector | End sector
---------------------------------------------------------
1 | 0:00.00 | 3:29.45 | 0 | 15719
2 | 3:29.45 | 3:53.72 | 15720 | 33266
3 | 7:23.42 | 3:40.53 | 33267 | 49819
4 | 11:04.20 | 3:59.65 | 49820 | 67809
5 | 15:04.10 | 3:57.35 | 67810 | 85619
6 | 19:01.45 | 4:12.42 | 85620 | 104561
7 | 23:14.12 | 4:22.63 | 104562 | 124274
8 | 27:37.00 | 4:54.32 | 124275 | 146356
9 | 32:31.32 | 4:26.23 | 146357 | 166329
10 | 36:57.55 | 4:03.52 | 166330 | 184606
11 | 41:01.32 | 4:02.18 | 184607 | 202774
12 | 45:03.50 | 3:58.25 | 202775 | 220649
13 | 49:02.00 | 3:52.22 | 220650 | 238071
14 | 52:54.22 | 3:48.05 | 238072 | 255176
15 | 56:42.27 | 4:05.73 | 255177 | 273624
Range status and errors
Selected range
Filename E:раздача8 bitVarious - 8-Bit Operators - The Music Of Kraftwerk.wav
Peak level 98.9 %
Range quality 100.0 %
Test CRC CF3F1E8C
Copy CRC CF3F1E8C
Copy OK
No errors occurred
AccurateRip summary
Track 1 accurately ripped (confidence 2) [E5A30A37]
Track 2 accurately ripped (confidence 2) [A91EF61A]
Track 3 accurately ripped (confidence 2) [427A75D9]
Track 4 accurately ripped (confidence 2) [26C10DBA]
Track 5 accurately ripped (confidence 2) [C8FDD308]
Track 6 accurately ripped (confidence 2) [2A5BDCAD]
Track 7 accurately ripped (confidence 2) [75026CA5]
Track 8 accurately ripped (confidence 2) [E74FDF5A]
Track 9 accurately ripped (confidence 2) [6BBA3601]
Track 10 accurately ripped (confidence 2) [E638AA03]
Track 11 accurately ripped (confidence 2) [037FB461]
Track 12 accurately ripped (confidence 2) [7FBDA461]
Track 13 accurately ripped (confidence 2) [74B23786]
Track 14 accurately ripped (confidence 2) [27B5A10E]
Track 15 accurately ripped (confidence 2) [A7C6E7E5]
All tracks accurately ripped
End of status report
-
Яндекс.Метрика
Рейтинг@Mail.ru