G. NA - Top Girl 3D (2011) WEBRip [1080p] [Горизонтальная анаморфная стереопара]

 

Создавать темы 18-Янв-2015 06:54

-G. NA - Top Girl 3D (2011) WEBRip [1080p] [Горизонтальная анаморфная стереопара]- Год выпуска: 2011
Жанр: K-Pop, ElectroPop
Описание:
Музыкальный клип от компании LG демонстрирующий 3Д эффекты с максимальным вылетом из экрана.
Об исполнителе:
Gina Jane Choi — кореяно-канадская певица, более известная под своим сценическим именем G. NA. Была избрана компанией LG «лицом трёхмерных технологий».
Продолжительность: 00:03:52
Качество видео: HDRip
Формат 3d: Anamorph SideBySide
Порядок ракурсов: Параллельная пара
Видеокодек: MPEG-4 AVC/H.264
Битрейт видео: ~5 044 Kbps
Размер кадра: 1920 x 1080
Аудиокодек: AAC
Битрейт аудио: 151 Kbps 2 channels

MediaInfo

Общее
Полное имя : C:\Users\ZEUS\Documents\Закачанное\TOP GIRL.mp4
Формат : MPEG-4
Профиль формата : Base Media / Version 2
Идентификатор кодека : mp42
Размер файла : 144 Мбайт
Продолжительность : 3 м. 52 с.
Режим общего битрейта : Переменный
Общий поток : 5200 Кбит/сек
Дата кодирования : UTC 2011-09-20 20:30:04
Дата пометки : UTC 2011-09-20 20:30:04
gsst : 0
gstd : 232815
gssd : B4A7DDAA8MH1316766670442047
gshh : v8.cache6.c.youtube.com
Видео
Идентификатор : 1
Формат : AVC
Формат/Информация : Advanced Video Codec
Профиль формата : [url=mailto:[email protected]][email protected][/url]
Параметр CABAC формата : Да
Параметр ReFrames формата : 1 кадр
Параметр GOP формата : M=1, N=24
Идентификатор кодека : avc1
Идентификатор кодека/Информация : Advanced Video Coding
Продолжительность : 3 м. 52 с.
Битрейт : 5044 Кбит/сек
Максимальный битрейт : 14,8 Мбит/сек
Ширина : 1920 пикселей
Высота : 1080 пикселей
Соотношение сторон : 16:9
Режим частоты кадров : Переменный
Частота кадров : 23,976 кадра/сек
Минимальная частота кадров : 23,810 кадра/сек
Максимальная частота кадров : 24,390 кадра/сек
Цветовое пространство : YUV
Субдискретизация насыщенности : 4:2:0
Битовая глубина : 8 бит
Тип развёртки : Прогрессивная
Бит/(Пиксели*Кадры) : 0.101
Размер потока : 140 Мбайт (97%)
Дата пометки : UTC 2011-09-20 20:30:04
Аудио
Идентификатор : 2
Формат : AAC
Формат/Информация : Advanced Audio Codec
Профиль формата : LC
Идентификатор кодека : 40
Продолжительность : 3 м. 52 с.
Вид битрейта : Переменный
Битрейт : 151 Кбит/сек
Максимальный битрейт : 229 Кбит/сек
Каналы : 2 канала
Расположение каналов : Front: L R
Частота : 44,1 КГц
Метод сжатия : С потерями
Размер потока : 4,18 Мбайт (3%)
Заголовок : IsoMedia File Produced by Google, 5-11-2011
Дата кодирования : UTC 2011-09-20 20:30:04
Дата пометки : UTC 2011-09-20 20:30:04
--Время раздачи: 12-00 до 24-00
Яндекс.Метрика
Рейтинг@Mail.ru