[ Сегодня на трекере фрилич! Идет свободное скачивание без начисления Download ]

Хит-парад лучших музыкальных хитов из сериалов / Music HIT-list (2014) HDTV [1080i]

 

Создавать темы 18-Янв-2015 06:52

-Хит-парад лучших музыкальных хитов из сериалов / Music HIT-list (2014) HDTV [1080i]- Жанр: Музыкальный, Короткометражный
Описание фильма:
Хит-парад лучших музыкальных хитов из сериалов. Уникальная коллекция музыкальных клипов и фрагментов для всех поклонников хорошей музыки и сериалов.
Продолжительность: 00:27:53
Качество видео: HDTV [1080i]
Перевод: Многоголосый закадровый
Язык субтитров: Русский
Вид субтитров: Вшитые
Видеокодек: MPEG-4 AVC/H.264
Битрейт видео: ~6691 kb/s
Размер кадра: 1920х1080
Аудио 1: Russian / MPEG Audio / 2.0 / 48 kHz / 192 kbps
Аудио 2: English / MPEG Audio / 2.0 / 48 kHz / 192 kbps
Аудио 3: Russian / АС-3 / 5.1 / 48 kHz / 384 kbps
Сэмпл: Ссылка

Mediainfo:

Общее
Идентификатор                            : 16 (0x10)
Полное имя                               : Music HIT-list_2014_HD.ts
Формат                                   : MPEG-TS
Размер файла                             : 1,53 Гбайт
Продолжительность                        : 27 м.
Режим общего битрейта                    : Переменный
Общий поток                              : 7855 Кбит/сек
Видео
Идентификатор                            : 1812 (0x714)
Идентификатор меню                       : 812 (0x32C)
Формат                                   : AVC
Формат/Информация                        : Advanced Video Codec
Профиль формата                          : [url=mailto:[email protected]][email protected][/url]
Параметр CABAC формата                   : Да
Параметр ReFrames формата                : 4 кадра
Идентификатор кодека                     : 27
Продолжительность                        : 27 м.
Битрейт                                  : 6691 Кбит/сек
Ширина                                   : 1920 пикселей
Высота                                   : 1080 пикселей
Соотношение сторон                       : 16:9
Частота кадров                           : 25,000 кадров/сек
Стандарт вещания                         : PAL
Цветовое пространство                    : YUV
Субдискретизация насыщенности            : 4:2:0
Битовая глубина                          : 8 бит
Тип развёртки                            : MBAFF
Бит/(Пиксели*Кадры)                      : 0.129
Размер потока                            : 1,31 Гбайт (85%)
Основные цвета                           : BT.709
Характеристики трансфера                 : BT.709
Коэффициенты матрицы                     : BT.709
Аудио #1
Идентификатор                            : 2812 (0xAFC)
Идентификатор меню                       : 812 (0x32C)
Формат                                   : MPEG Audio
Версия формата                           : Version 1
Профиль формата                          : Layer 2
Режим                                    : Joint stereo
Расширение режима                        : Intensity Stereo + MS Stereo
Идентификатор кодека                     : 4
Продолжительность                        : 27 м.
Вид битрейта                             : Постоянный
Битрейт                                  : 192 Кбит/сек
Каналы                                   : 2 канала
Частота                                  : 48,0 КГц
Метод сжатия                             : С потерями
Задержка видео                           : 14 мс.
Размер потока                            : 38,4 Мбайт (2%)
Язык                                     : std
Язык, дополнительно                      : Clean effects
Аудио #2
Идентификатор                            : 3812 (0xEE4)
Идентификатор меню                       : 812 (0x32C)
Формат                                   : MPEG Audio
Версия формата                           : Version 1
Профиль формата                          : Layer 2
Режим                                    : Joint stereo
Расширение режима                        : Intensity Stereo + MS Stereo
Идентификатор кодека                     : 4
Продолжительность                        : 27 м.
Вид битрейта                             : Постоянный
Битрейт                                  : 192 Кбит/сек
Каналы                                   : 2 канала
Частота                                  : 48,0 КГц
Метод сжатия                             : С потерями
Задержка видео                           : 14 мс.
Размер потока                            : 38,4 Мбайт (2%)
Язык                                     : English
Язык, дополнительно                      : Clean effects
Аудио #3
Идентификатор                            : 4812 (0x12CC)
Идентификатор меню                       : 812 (0x32C)
Формат                                   : AC-3
Формат/Информация                        : Audio Coding 3
Расширение режима                        : CM (complete main)
Параметр Endianness формата              : Big
Идентификатор кодека                     : 6
Продолжительность                        : 27 м.
Вид битрейта                             : Постоянный
Битрейт                                  : 384 Кбит/сек
Каналы                                   : 6 каналов
Расположение каналов                     : Front: L C R, Side: L R, LFE
Частота                                  : 48,0 КГц
Битовая глубина                          : 16 бит
Метод сжатия                             : С потерями
Задержка видео                           : 238 мс.
Размер потока                            : 76,8 Мбайт (5%)
Язык                                     : std
Язык, дополнительно                      : Clean effects
Текст
Идентификатор                            : 63 (0x3F)-100
Идентификатор меню                       : 812 (0x32C)
Формат                                   : Teletext
Меню
Идентификатор                            : 812 (0x32C)
Идентификатор меню                       : 812 (0x32C)
Продолжительность                        : 27 м.
Список                                   : 1812 (0x714) (AVC) / 2812 (0xAFC) (MPEG Audio, std) / 3812 (0xEE4) (MPEG Audio, English) / 4812 (0x12CC) (AC-3, std) / 63 (0x3F) ()
Язык                                     :  / std / English / std

Список хитов:

Скриншоты:
-Время раздачи: Пн-Пт с 18:00 до 22:00
Яндекс.Метрика
Рейтинг@Mail.ru