(Heavy Metal) Bullet - Highway Pirates - 2011 [FLAC, image+.cue, lossless]

 

Создавать темы 18-Янв-2015 05:23

-Bullet / Highway Pirates-- Год издания: 2011
Страна: Sweden
Жанр: Heavy Metal
Продолжительность: 00:39:25-Лейбл издания: Black Lodge
Страна-выпуска диска: Sweden
Номер по каталогу: BLOD071CD
Формат: FLAC
Битрейт аудио: lossless
Тип рипа: image+.cue
Наличие сканов в содержимом раздачи: да
-

Трэклист

01.Highway Pirates (04:51)
02.Back On The Road (04:00)
03.Stay Wild (02:46)
04.Blood Run Hot (02:51)
05.Fire And Dynamite (04:34)
06.Down And Out (03:40)
07.Knuckleduster (02:56)
08.Heavy Metal Dynamite (03:55)
09.Citylights (04:01)
10.Into The Night (05:46)

Индексная карта (non-compilant .cue)

REM GENRE Metal
REM DATE 2011
REM DISCID 76093D0A
REM COMMENT "ExactAudioCopy v0.99pb5"
PERFORMER "Bullet"
TITLE "Highway Pirates"
FILE "Bullet - Highway Pirates.flac" WAVE
TRACK 01 AUDIO
TITLE "Highway Pirates"
PERFORMER "Bullet"
INDEX 01 00:00:00
TRACK 02 AUDIO
TITLE "Back On The Road"
PERFORMER "Bullet"
INDEX 01 04:51:05
TRACK 03 AUDIO
TITLE "Stay Wild"
PERFORMER "Bullet"
INDEX 00 08:49:45
INDEX 01 08:51:62
TRACK 04 AUDIO
TITLE "Blood Run Hot"
PERFORMER "Bullet"
INDEX 00 11:36:69
INDEX 01 11:38:17
TRACK 05 AUDIO
TITLE "Fire And Dynamite"
PERFORMER "Bullet"
INDEX 01 14:29:65
TRACK 06 AUDIO
TITLE "Down And Out"
PERFORMER "Bullet"
INDEX 01 19:04:59
TRACK 07 AUDIO
TITLE "Knuckleduster"
PERFORMER "Bullet"
INDEX 01 22:44:73
TRACK 08 AUDIO
TITLE "Heavy Metal Dynamite"
PERFORMER "Bullet"
INDEX 00 25:40:14
INDEX 01 25:41:62
TRACK 09 AUDIO
TITLE "Citylights"
PERFORMER "Bullet"
INDEX 00 29:35:38
INDEX 01 29:36:68
TRACK 10 AUDIO
TITLE "Into The Night"
PERFORMER "Bullet"
INDEX 01 33:38:36

Лог Audiochecker

AUDIOCHECKER v2.0 beta (build 457) - by Dester - [email protected]
~~~~~~~~~~~~~~~~~~~~~~~~~~~~~~~~~~
Started at: воскресенье, 18. 01. 2015. - 0:33.42
1 file found
1 -===- D:\Torrent files\(2011) Bullet - Highway Pirates\Bullet - Highway Pirates.flac
Extracted successfully
Conclusion: this track is CDDA with probability 100%
Tempfile successfully deleted.
Finished at: воскресенье, 18. 01. 2015. - 0:35.39 (operation time: 0:01.57)

Скриншот спектра частот

--Не забываем говорить
Яндекс.Метрика
Рейтинг@Mail.ru