(Heavy Metal) Bullet - Bite The Bullet - 2008 [APE, image+.cue, lossless]

 

Создавать темы 18-Янв-2015 05:22

-Bullet / Bite The Bullet-- Год издания: 2008
Страна: Sweden
Жанр: Heavy Metal
Продолжительность: 00:41:38-Лейбл издания: Black Lodge
Страна-выпуска диска: Sweden
Номер по каталогу: BLOD046CD
Формат: APE
Битрейт аудио: lossless
Тип рипа: image+.cue
Наличие сканов в содержимом раздачи: да
-

Трэклист

01.Pay The Price (04:18)
02.Roadking (05:01)
03.Bite The Bullet (02:43)
04.Dusk Til Dawn (03:46)
05.Nailed To The Ground (03:04)
06.City Of Sins (01:16)
07.Waste My Time (03:37)
08.Rock'n'Roll Remedy (04:50)
09.Rock Us Tonight (03:05)
10.Wheels Keep On Turning (04:19)
11.The Rebels Return (05:35)

Индексная карта (non-compilant .cue)

REM GENRE Metal
REM DATE 2008
REM DISCID 7809C20B
REM COMMENT "ExactAudioCopy v0.95b4"
PERFORMER "Bullet"
TITLE "Bite The Bullet"
FILE "Bullet - Bite The Bullet.ape" WAVE
TRACK 01 AUDIO
TITLE "Pay The Price"
PERFORMER "Bullet"
INDEX 01 00:00:00
TRACK 02 AUDIO
TITLE "Roadking"
PERFORMER "Bullet"
INDEX 01 04:18:33
TRACK 03 AUDIO
TITLE "Bite The Bullet"
PERFORMER "Bullet"
INDEX 01 09:20:03
TRACK 04 AUDIO
TITLE "Dusk Til Dawn"
PERFORMER "Bullet"
INDEX 00 12:02:58
INDEX 01 12:03:63
TRACK 05 AUDIO
TITLE "Nailed To The Ground"
PERFORMER "Bullet"
INDEX 00 15:49:17
INDEX 01 15:50:25
TRACK 06 AUDIO
TITLE "City Of Sins"
PERFORMER "Bullet"
INDEX 00 18:53:15
INDEX 01 18:55:03
TRACK 07 AUDIO
TITLE "Waste My Time"
PERFORMER "Bullet"
INDEX 01 20:11:22
TRACK 08 AUDIO
TITLE "Rock'n'Roll Remedy"
PERFORMER "Bullet"
INDEX 00 23:47:51
INDEX 01 23:48:33
TRACK 09 AUDIO
TITLE "Rock Us Tonight"
PERFORMER "Bullet"
INDEX 00 28:37:65
INDEX 01 28:38:66
TRACK 10 AUDIO
TITLE "Wheels Keep On Turning"
PERFORMER "Bullet"
INDEX 00 31:43:58
INDEX 01 31:44:51
TRACK 11 AUDIO
TITLE "The Rebels Return"
PERFORMER "Bullet"
INDEX 00 36:02:02
INDEX 01 36:03:55

Лог Audiochecker

AUDIOCHECKER v2.0 beta (build 457) - by Dester - [email protected]
~~~~~~~~~~~~~~~~~~~~~~~~~~~~~~~~~~
Started at: суббота, 17. 01. 2015. - 23:58.27
1 file found
1 -===- D:\Torrent files\(2008) Bullet - Bite The Bullet\Bullet - Bite The Bullet.ape
Extracted successfully
Conclusion: this track is CDDA with probability 100%
Tempfile successfully deleted.
Finished at: воскресенье, 18. 01. 2015. - 0:00.47 (operation time: 0:02.19)

Скриншот спектра частот

--Не забываем говорить
Яндекс.Метрика
Рейтинг@Mail.ru