[ Сегодня на трекере фрилич! Идет свободное скачивание без начисления Download ]

(Heavy Metal) Bullet - Heading for the Top - 2006 [APE, image+.cue, lossless]

 

Создавать темы 18-Янв-2015 05:20

-Bullet / Heading for the Top-- Год издания: 2006
Страна: Sweden
Жанр: Heavy Metal
Продолжительность: 00:41:19-Лейбл издания: Black Lodge
Страна-выпуска диска: Sweden
Номер по каталогу: BLOD029CD
Формат: APE
Битрейт аудио: lossless
Тип рипа: image+.cue
Наличие сканов в содержимом раздачи: да
-

Трэклист

01.Midnight Riders (04:03)
02.Turn It Up Loud (03:43)
03.Heading For the Top (03:00)
04.Rambling Man (02:32)
05.Hard Luck Lady (03:58)
06.Speeding In the Night (03:33)
07.One Deal With the Devil (04:53)
08.Rock Steady (03:47)
09.Leather Love (03:56)
10.Raise Hell (02:36)
11.Bang Your Head (05:12)

Индексная карта (non-compilant .cue)

REM GENRE Rock
REM DATE 2006
REM DISCID 8609AF0B
REM COMMENT "ExactAudioCopy v0.95b4"
PERFORMER "Bullet"
TITLE "Heading for the Top"
FILE "Bullet - Heading for the Top.ape" WAVE
TRACK 01 AUDIO
TITLE "Midnight Riders"
PERFORMER "Bullet"
INDEX 01 00:00:00
TRACK 02 AUDIO
TITLE "Turn It Up Loud"
PERFORMER "Bullet"
INDEX 01 04:03:50
TRACK 03 AUDIO
TITLE "Heading For the Top"
PERFORMER "Bullet"
INDEX 01 07:46:69
TRACK 04 AUDIO
TITLE "Rambling Man"
PERFORMER "Bullet"
INDEX 01 10:47:03
TRACK 05 AUDIO
TITLE "Hard Luck Lady"
PERFORMER "Bullet"
INDEX 01 13:19:70
TRACK 06 AUDIO
TITLE "Speeding In the Night"
PERFORMER "Bullet"
INDEX 01 17:18:09
TRACK 07 AUDIO
TITLE "One Deal With the Devil"
PERFORMER "Bullet"
INDEX 01 20:51:41
TRACK 08 AUDIO
TITLE "Rock Steady"
PERFORMER "Bullet"
INDEX 01 25:45:07
TRACK 09 AUDIO
TITLE "Leather Love"
PERFORMER "Bullet"
INDEX 01 29:33:04
TRACK 10 AUDIO
TITLE "Raise Hell"
PERFORMER "Bullet"
INDEX 01 33:30:03
TRACK 11 AUDIO
TITLE "Bang Your Head "
PERFORMER "Bullet"
INDEX 01 36:06:31

Лог Audiochecker

AUDIOCHECKER v2.0 beta (build 457) - by Dester - [email protected]
~~~~~~~~~~~~~~~~~~~~~~~~~~~~~~~~~~
Started at: январь, 17. 01. 2015. - 23:17.44
1 file found
1 -===- D:\Torrent files\(2006) Bullet - Heading for the Top\Bullet - Heading for the Top.ape
Extracted successfully
Conclusion: this track is CDDA with probability 100%
Tempfile successfully deleted.
Finished at: январь, 17. 01. 2015. - 23:20.01 (operation time: 0:02.16)

Скриншот спектра частот

Не забываем говорить
Яндекс.Метрика
Рейтинг@Mail.ru