[ Сегодня на трекере фрилич! Идет свободное скачивание без начисления Download ]

Битва за Мён Рян / Myeong-ryang (Ким Хан Мин / Kim Han Min) [2014 г., военный, приключения, биография, HDTVRip] VO (Дмитрий Познанский)

 

Создавать темы 18-Янв-2015 05:18

-Битва за Мён Рян / Myeong-ryang-- Производство: Южная Корея / Big Stone Pictures, CJ Entertainment
Год выпуска: 2014 г.
Жанр: военный, приключения, биография
Продолжительность: 02:08:32
Мировая премьера: 30 июля 2014
Перевод: Любительский (одноголосый, закадровый) [Дмитрий Познанский - Green Tea - озвучка, Виктория Широкова - текст]
Режиссер: Ким Хан Мин / Kim Han Min-В ролях: Чхве Мин Сик, Сын-Рён Рёо, Сын Рён Рю, Ким Мён Гон, Чин Гу, Ли Чун Хюн, Чжин Ун Чо-Описание: Фильм рассказывает об известной битве за Мён Рян, состоявшейся в 1597 году во время японского вторжения в Корею. Тогда культовому адмиралу Ли Сунсину удалось уничтожить 133 японских корабля имея флот всего в 13 кораблей.-
Качество видео: HDTVRip
Контейнер: AVI
Видео кодек: XviD
Аудио кодек: MP3
Видео: 720x304, 1420 Кбит/сек, 23,976 кадра/сек, 0.271 Бит/(Пиксели*Кадры)
Аудио: 192 Кбит/сек, 2 канала, 48,0 КГц
Cубтитры: отсутствуют

Media Info

Общее
Полное имя                               : D:\movies\pirat.ca\Адмирал.2014.HDTVRip.avi
Формат                                   : AVI
Формат/Информация                        : Audio Video Interleave
Размер файла                             : 1,45 Гбайт
Продолжительность                        : 2 ч. 8 м.
Общий поток                              : 1622 Кбит/сек
Программа кодирования                    : VirtualDubMod 1.5.10.2 (build 2540/release)
Библиотека кодирования                   : VirtualDubMod build 2540/release
Видео
Идентификатор                            : 0
Формат                                   : MPEG-4 Visual
Профиль формата                          : Advanced [email protected]
Параметр BVOP формата                    : 2
Параметр QPel формата                    : Нет
Параметр GMC формата                     : Без точки перехода
Параметр матрицы формата                 : Default (MPEG)
Идентификатор кодека                     : XVID
Идентификатор кодека/Подсказка           : XviD
Продолжительность                        : 2 ч. 8 м.
Битрейт                                  : 1420 Кбит/сек
Ширина                                   : 720 пикселей
Высота                                   : 304 пикселя
Соотношение сторон                       : 2,35:1
Частота кадров                           : 23,976 кадра/сек
Цветовое пространство                    : YUV
Субдискретизация насыщенности            : 4:2:0
Битовая глубина                          : 8 бит
Тип развёртки                            : Прогрессивная
Метод сжатия                             : С потерями
Бит/(Пиксели*Кадры)                      : 0.271
Размер потока                            : 1,27 Гбайт (88%)
Библиотека кодирования                   : XviD 1.2.1 (UTC 2008-12-04)
Аудио
Идентификатор                            : 1
Формат                                   : MPEG Audio
Версия формата                           : Version 1
Профиль формата                          : Layer 3
Режим                                    : Joint stereo
Идентификатор кодека                     : 55
Идентификатор кодека/Подсказка           : MP3
Продолжительность                        : 2 ч. 8 м.
Вид битрейта                             : Постоянный
Битрейт                                  : 192 Кбит/сек
Каналы                                   : 2 канала
Частота                                  : 48,0 КГц
Метод сжатия                             : С потерями
Размер потока                            : 176 Мбайт (12%)
Выравнивание                             : Соединение по промежуткам
Продолжительность промежутка             : 42  мс. (1,00 видеокадр)
Время предзагрузки промежутка            : 504  мс.

Скриншоты

Яндекс.Метрика
Рейтинг@Mail.ru