Битва за Мён Рян / Myeong-ryang (Ким Хан Мин / Kim Han Min) [2014 г., военный, приключения, биография, HDTVRip] VO (Дмитрий Познанский) + original (Kor)

 

Создавать темы 18-Янв-2015 05:16

-Битва за Мён Рян / Myeong-ryang-- Производство: Южная Корея / Big Stone Pictures, CJ Entertainment
Год выпуска: 2014 г.
Жанр: военный, приключения, биография
Продолжительность: 02:08:32
Мировая премьера: 30 июля 2014
Перевод: Любительский (одноголосый, закадровый) [Дмитрий Познанский - Green Tea - озвучка, Виктория Широкова - текст]
Оригинальный аудиопоток: Корейский
Режиссер: Ким Хан Мин / Kim Han Min-В ролях: Чхве Мин Сик, Сын-Рён Рёо, Сын Рён Рю, Ким Мён Гон, Чин Гу, Ли Чун Хюн, Чжин Ун Чо-Описание: Фильм рассказывает об известной битве за Мён Рян, состоявшейся в 1597 году во время японского вторжения в Корею. Тогда культовому адмиралу Ли Сунсину удалось уничтожить 133 японских корабля имея флот всего в 13 кораблей.-
Качество видео: HDTVRip
Контейнер: AVI
Видео кодек: XviD
Аудио кодек: AC3
Видео: 720x304, 2089 Кбит/сек, 23,976 кадра/сек, 0.398 Бит/(Пиксели*Кадры)
Аудио №1: 192 Кбит/сек, 2 канала, 48,0 КГц (Русский)
Аудио №2: 128 Кбит/сек, 2 канала, 48,0 КГц (Английский)
Cубтитры: отсутствуют

Media Info

Общее
Полное имя                               : D:\movies\pirat.ca\The Admiral Roaring Currents (2014) HDTV.avi
Формат                                   : AVI
Формат/Информация                        : Audio Video Interleave
Профиль формата                          : OpenDML
Настройки формата                        : rec
Размер файла                             : 2,17 Гбайт
Продолжительность                        : 2 ч. 8 м.
Общий поток                              : 2416 Кбит/сек
Программа кодирования                    : AVI-Mux GUI 1.17.8.3, Feb 16 201019:42:50
Видео
Идентификатор                            : 0
Формат                                   : MPEG-4 Visual
Профиль формата                          : Advanced [email protected]
Параметр BVOP формата                    : Нет
Параметр QPel формата                    : Нет
Параметр GMC формата                     : Без точки перехода
Параметр матрицы формата                 : Default (MPEG)
Идентификатор кодека                     : XVID
Идентификатор кодека/Подсказка           : XviD
Продолжительность                        : 2 ч. 8 м.
Битрейт                                  : 2089 Кбит/сек
Ширина                                   : 720 пикселей
Высота                                   : 304 пикселя
Соотношение сторон                       : 2,35:1
Частота кадров                           : 23,976 кадра/сек
Цветовое пространство                    : YUV
Субдискретизация насыщенности            : 4:2:0
Битовая глубина                          : 8 бит
Тип развёртки                            : Прогрессивная
Метод сжатия                             : С потерями
Бит/(Пиксели*Кадры)                      : 0.398
Размер потока                            : 1,87 Гбайт (86%)
Библиотека кодирования                   : XviD 62
Аудио #1
Идентификатор                            : 1
Формат                                   : AC-3
Формат/Информация                        : Audio Coding 3
Расширение режима                        : CM (complete main)
Параметр Endianness формата              : Big
Идентификатор кодека                     : 2000
Продолжительность                        : 2 ч. 8 м.
Вид битрейта                             : Постоянный
Битрейт                                  : 192 Кбит/сек
Каналы                                   : 2 канала
Расположение каналов                     : Front: L R
Частота                                  : 48,0 КГц
Битовая глубина                          : 16 бит
Метод сжатия                             : С потерями
Размер потока                            : 176 Мбайт (8%)
Выравнивание                             : Соединение по промежуткам
Продолжительность промежутка             : 64  мс. (1,53 видеокадра)
Время предзагрузки промежутка            : 192  мс.
Заголовок                                : Rus_176
Аудио #2
Идентификатор                            : 2
Формат                                   : AC-3
Формат/Информация                        : Audio Coding 3
Расширение режима                        : CM (complete main)
Параметр Endianness формата              : Big
Идентификатор кодека                     : 2000
Продолжительность                        : 2 ч. 8 м.
Вид битрейта                             : Постоянный
Битрейт                                  : 128 Кбит/сек
Каналы                                   : 2 канала
Расположение каналов                     : Front: L R
Частота                                  : 48,0 КГц
Битовая глубина                          : 16 бит
Метод сжатия                             : С потерями
Размер потока                            : 117 Мбайт (5%)
Выравнивание                             : Соединение по промежуткам
Продолжительность промежутка             : 64  мс. (1,53 видеокадра)
Время предзагрузки промежутка            : 192  мс.
Заголовок                                : Kor_117

Скриншоты

Яндекс.Метрика
Рейтинг@Mail.ru