[ Сегодня на трекере фрилич! Идет свободное скачивание без начисления Download ]

Поводырь / Поводир / The Guide (Олесь Санин) [2014 г., военный, драма, приключения, DVDScreener]

 

Создавать темы 18-Янв-2015 05:15

-Поводырь / Поводир / The Guide-- Производство: Украина, Pronto Film
Режиссер: Олесь Санин
Жанр: военный, драма, приключения
Год выпуска: 2014 г.
Продолжительность: 02:04:01
Язык: Русский, украинский, английский (диалоги на трёх языках)
Российская премьера: 10 октября 2014
В ролях: Джефф Баррелл, Станислав Боклан, Антон Святослав Грин, Ирина Санина, Александр Кобзарь, Андрей Билоус, Федор Стригун, Олег Примогенов, Джамала, Максим Стоялов-Описание: Украина, тридцатые годы. Американский инженер Майкл Шемрок вместе с сыном приезжает в Харьков помогать строить социализм. Здесь он влюбляется в актрису Ольгу Левицкую, на которую давно положил глаз красный комиссар. При трагических обстоятельствах американец погибает, а его сына спасает от преследователей слепой кобзарь. Не имея других шансов выжить на чужбине, парень становится поводырем. Их путешествие, полное опасных приключений, происходит на фоне драматических страниц украинской истории и разрушения человеческих судеб. Фильм о любви, верности, подлости и предательстве.-
Качество видео: DVDScreener
Контейнер: AVI
Видео кодек: XviD
Аудио кодек: AC3
Видео: 720x304, 2139 Кбит/сек, 24,000 кадра/сек, 0.407 Бит/(Пиксели*Кадры)
Аудио: 224 Кбит/сек, 2 канала, 48,0 КГц
Cубтитры: отсутствуют

Рецензия

Поэтично, красиво, больно…По лесным дорогам, мимо уничтоженных страшным голодом сел идут двое — слепой музыкант и маленький мальчик. Идут и несут в себе то великое чудо, которое почти невозможно убить — надежду. Они бегут от горя, подлости и зла, опутавшего своими сетями когда-то цветущий и веселый край. Они идут…
Таких пар много. Они разошлись по стране и несут людям то, что не написано в книгах, — народную память. Вокруг них собираются толпы и слушают, слушают, слушают. Потому что можно убить человека, но нельзя уничтожить песню. Никак нельзя.
В этом фильме очень много трагизма, надежды и музыки. Каждый кадр переполнен музыкой. В каждый кадр хочется всматриваться и улавливать что-то очень важное. Для себя. И для тех кто будет после нас.
Потрясающая актерская игра. Мальчик Антон Святослав Грин, впервые сыгравший в кино, настолько тонко прочувствовал своего героя, что ему веришь с первого кадра. Талантливая певица Джамала тоже сыграла свою дебютную роль, и сделала это очень тонко и надрывно. Станислав Боклан… Нет, он никогда не сможет заменить ушедшего от нас два года назад Богдана Ступку, но тем не менее этот человек — настоящее событие в украинском кино. Это не просто талантливый актер. Это — Личность с большой буквы.
Этот фильм не просто гениально прожитая на экране трагическая история. Это ни с чем не сравнимое чувство гордости за свою страну. За то, что в моей стране есть люди, которые умеют так чувствовать, так думать, и так снимать.
Я безгранично горжусь всеми этими людьми. Дякую!10 из 10

Знаете ли вы, что...

  • На создание фильма ушло 10 лет.
  • Роль поводыря выполнил 10-летний американец Антон Святослав Грин. Олесь Санин выбрал его из 200 претендентов на роль.
  • Жену Ивана Кочерги сыграла жена режиссера Ирина Санина. Героиня живет в деревянном доме на острове, куда трудно добраться. Для съемок дом построили на Днепре и заказали для нее специальную крышу. Мастера постелили на дом старую крышу с дома-музея Шевченко.
  • Для съемок в эпизодах Олесь Санин пригласил несколько десятков незрячих и кобзарей. Также в фильме сыграл бандурист Тарас Компаниченко. Харьковского поэта Михайля Семенко сыграл Сергей Жадан. Он появляется в кадре на несколько секунд, читает стихи.
  • Для Станислава Боклана и нескольких кобзарей заказали специальные линзы из США. В них актеры ничего не видели.
  • Для съемок восстановили первый трактор Харьковского тракторного завода, выпущенного в 1931 году. Он 50 лет простоял на постаменте перед предприятием. Затем его сдали на металлолом. Для съемок трактор починили, теперь он ездит. Также восстановили паровоз и путь для него. Шили специальную одежду, в частности 200 пар сапог для кобзарей.

Media Info

Общее
Полное имя                               : D:\movies\pirat.ca\The Guide (2014) DVDScr.avi
Формат                                   : AVI
Формат/Информация                        : Audio Video Interleave
Профиль формата                          : OpenDML
Настройки формата                        : rec
Размер файла                             : 2,05 Гбайт
Продолжительность                        : 2 ч. 4 м.
Общий поток                              : 2369 Кбит/сек
Программа кодирования                    : AVI-Mux GUI 1.17.8.3, Feb 16 201019:42:50
Видео
Идентификатор                            : 0
Формат                                   : MPEG-4 Visual
Профиль формата                          : Advanced [email protected]
Параметр BVOP формата                    : Нет
Параметр QPel формата                    : Нет
Параметр GMC формата                     : Без точки перехода
Параметр матрицы формата                 : Default (MPEG)
Идентификатор кодека                     : XVID
Идентификатор кодека/Подсказка           : XviD
Продолжительность                        : 2 ч. 4 м.
Битрейт                                  : 2139 Кбит/сек
Ширина                                   : 720 пикселей
Высота                                   : 304 пикселя
Соотношение сторон                       : 2,35:1
Частота кадров                           : 24,000 кадра/сек
Цветовое пространство                    : YUV
Субдискретизация насыщенности            : 4:2:0
Битовая глубина                          : 8 бит
Тип развёртки                            : Прогрессивная
Метод сжатия                             : С потерями
Бит/(Пиксели*Кадры)                      : 0.407
Размер потока                            : 1,85 Гбайт (90%)
Библиотека кодирования                   : XviD 62
Аудио
Идентификатор                            : 1
Формат                                   : AC-3
Формат/Информация                        : Audio Coding 3
Расширение режима                        : CM (complete main)
Параметр Endianness формата              : Big
Идентификатор кодека                     : 2000
Продолжительность                        : 2 ч. 4 м.
Вид битрейта                             : Постоянный
Битрейт                                  : 224 Кбит/сек
Каналы                                   : 2 канала
Расположение каналов                     : Front: L R
Частота                                  : 48,0 КГц
Битовая глубина                          : 16 бит
Метод сжатия                             : С потерями
Размер потока                            : 199 Мбайт (9%)
Выравнивание                             : Соединение по промежуткам
Продолжительность промежутка             : 64  мс. (1,54 видеокадра)
Время предзагрузки промежутка            : 192  мс.
Заголовок                                : Rus_198

Скриншоты

Создавать темы 21-Фев-2015 14:26 (спустя 1 месяц 3 дня)

Посмотрю! Спасибо!
Яндекс.Метрика
Рейтинг@Mail.ru