Захваченный / Piege (Янник Сейлет / Yannick Saillet) [2014 г., боевик, триллер, военный, HDRip] VO (ХиХиДок) + Original (Fre)

 

Создавать темы 18-Янв-2015 05:09

-Захваченный / Piege-- Производство: Франция
Год выпуска: 2014 г.
Жанр: боевик, триллер, военный
Продолжительность: 01:14:25
Мировая премьера: 15 января 2014
Перевод: Любительский (одноголосый, закадровый) [ХиХиДок aka Дмитрий Грачев]
Оригинальный аудиопоток: французский
Режиссер: Янник Сейлет / Yannick Saillet-В ролях: Паскаль Элбе, Лоран Люка, Каролин Баль, Арно Анриет, Джереми Галан, Патрик Хименес, Ромейн Огеро-Описание: Афганистан. Патруль французских солдат попадает в засаду талибов. Погибли почти все, кроме одного солдата и освобожденной из плена заложницы. Успеют ли они дождаться обещанной подмоги?-
Качество видео: HDRip
Контейнер: AVI
Видео кодек: XviD
Аудио кодек: AC3
Видео: 720x304, 1974 Кбит/сек, 25,000 кадров/сек, 0,361 Бит/(Пиксели*Кадры)
Аудио №1: 192 Кбит/сек, 2 канала, 48,0 КГц (Русский)
Аудио №2: 448 Кбит/сек, 6 каналов, 48,0 КГц (Французский)
Cубтитры: отсутствуют

Media Info

Общее
Полное имя                               : D:\movies\pirat.ca\3aHva4eny1.2014.L1.HDRip.1400MB.avi
Формат                                   : AVI
Формат/Информация                        : Audio Video Interleave
Размер файла                             : 1,37 Гбайт
Продолжительность                        : 1 ч. 14 м.
Общий поток                              : 2629 Кбит/сек
Программа кодирования                    : VirtualDubMod 1.5.10.2 (build 2540/release)
Библиотека кодирования                   : VirtualDubMod build 2540/release
Видео
Идентификатор                            : 0
Формат                                   : MPEG-4 Visual
Профиль формата                          : Advanced [email protected]
Параметр BVOP формата                    : 2
Параметр QPel формата                    : Нет
Параметр GMC формата                     : Без точки перехода
Параметр матрицы формата                 : Default (MPEG)
Идентификатор кодека                     : XVID
Идентификатор кодека/Подсказка           : XviD
Продолжительность                        : 1 ч. 14 м.
Битрейт                                  : 1974 Кбит/сек
Ширина                                   : 720 пикселей
Высота                                   : 304 пикселя
Соотношение сторон                       : 2,35:1
Частота кадров                           : 25,000 кадров/сек
Цветовое пространство                    : YUV
Субдискретизация насыщенности            : 4:2:0
Битовая глубина                          : 8 бит
Тип развёртки                            : Прогрессивная
Метод сжатия                             : С потерями
Бит/(Пиксели*Кадры)                      : 0.361
Размер потока                            : 1,03 Гбайт (75%)
Библиотека кодирования                   : XviD 1.2.1 (UTC 2008-12-04)
Аудио #1
Идентификатор                            : 1
Формат                                   : AC-3
Формат/Информация                        : Audio Coding 3
Расширение режима                        : CM (complete main)
Параметр Endianness формата              : Big
Идентификатор кодека                     : 2000
Продолжительность                        : 1 ч. 14 м.
Вид битрейта                             : Постоянный
Битрейт                                  : 192 Кбит/сек
Каналы                                   : 2 канала
Расположение каналов                     : Front: L R
Частота                                  : 48,0 КГц
Битовая глубина                          : 16 бит
Метод сжатия                             : С потерями
Размер потока                            : 102 Мбайт (7%)
Выравнивание                             : Разделение по промежуткам
Продолжительность промежутка             : 40  мс. (1,00 видеокадр)
Время предзагрузки промежутка            : 500  мс.
Аудио #2
Идентификатор                            : 2
Формат                                   : AC-3
Формат/Информация                        : Audio Coding 3
Расширение режима                        : CM (complete main)
Параметр Endianness формата              : Big
Идентификатор кодека                     : 2000
Продолжительность                        : 1 ч. 14 м.
Вид битрейта                             : Постоянный
Битрейт                                  : 448 Кбит/сек
Каналы                                   : 6 каналов
Расположение каналов                     : Front: L C R, Side: L R, LFE
Частота                                  : 48,0 КГц
Битовая глубина                          : 16 бит
Метод сжатия                             : С потерями
Размер потока                            : 238 Мбайт (17%)
Выравнивание                             : Разделение по промежуткам
Продолжительность промежутка             : 40  мс. (1,00 видеокадр)
Время предзагрузки промежутка            : 500  мс.

Скриншот c названием фильма

Скриншоты

Яндекс.Метрика
Рейтинг@Mail.ru