Хлеб. Золото. Наган (Самвел Гаспаров) [1980 г., военный, DVDRip]

 

Создавать темы 18-Янв-2015 05:06

-Хлеб. Золото. Наган-- Производство: СССР. Киностудия им. Горького
Режиссер: Самвел Гаспаров
Жанр: военный
Год выпуска: 1980 г.
Продолжительность: 01:03:23
В ролях: В. Борисов, О. Гаспарова, Ю. Григорьев, О. Корчиков, Э. Бурдули, И. Класс, Э. Марцевич, С. Гаспаров, Е. Соляков-Описание: Гражданская война. Воспитательница детского дома везет хлеб голодающим детям. Ее случайные попутчики - чекист Горбач, матрос Саша и начальник станции Зайцев, которому в руки попали три слитка золота. А вокруг - красные, белые, бандиты...-Качество видео: DVDRip
Контейнер: AVI
Видео кодек: DivX
Аудио кодек: AC3
Видео: 688x304; 2178 kbps; 25 fps; 0.417 bit/pixel
Аудио: 448 kbps; 6 ch; 48 kHz
Cубтитры: отсутствуют

Media Info

General
Complete name : D:\Torrent\Hleb.Zoloto.Nagan._[Pirat.ca].torrent.avi
Format : AVI
Format/Info : Audio Video Interleave
Format profile : OpenDML
File size : 1.23 GiB
Duration : 1h 3mn
Overall bit rate : 2 770 Kbps
Video
ID : 0
Format : MPEG-4 Visual
Format settings, BVOP : 3
Format settings, QPel : No
Format settings, GMC : No warppoints
Format settings, Matrix : Default (H.263)
Muxing mode : Packed bitstream
Codec ID : DX50
Codec ID/Hint : DivX 5
Duration : 1h 3mn
Bit rate : 2 178 Kbps
Width : 688 pixels
Height : 304 pixels
Display aspect ratio : 2.25:1
Frame rate : 25.000 fps
Color space : YUV
Chroma subsampling : 4:2:0
Bit depth : 8 bits
Scan type : Progressive
Compression mode : Lossy
Bits/(Pixel*Frame) : 0.417
Stream size : 988 MiB (79%)
Writing library : DivX 6.8.2 (UTC 2008-05-17)
Audio
ID : 1
Format : AC-3
Format/Info : Audio Coding 3
Mode extension : CM (complete main)
Format settings, Endianness : Big
Codec ID : 2000
Duration : 1h 3mn
Bit rate mode : Constant
Bit rate : 448 Kbps
Channel(s) : 6 channels
Channel positions : Front: L C R, Side: L R, LFE
Sampling rate : 48.0 KHz
Bit depth : 16 bits
Compression mode : Lossy
Stream size : 203 MiB (16%)
Alignment : Aligned on interleaves
Interleave, duration : 32 ms (0.80 video frame)

Скриншоты

Раздача

Раздача с 14.00 до 2.30 (время московское)
Яндекс.Метрика
Рейтинг@Mail.ru