[ Сегодня на трекере фрилич! Идет свободное скачивание без начисления Download ]

Ночь покера / Poker Night (Грег Френсис / Greg Francis) [2014 г., триллер, боевик, криминал, WEB-DL, 720p] VO (PashaUp) + Original (Eng) + Sub (Eng)

 

Создавать темы 18-Янв-2015 05:05

-Ночь покера / Poker Night- Год выпуска: 2014 г.
Производство: Канада , США , XLRator Media, Wingman Productions Inc.
Жанр: триллер, боевик, криминал
Продолжительность: 01:45:03
Мировая премьера: 20 ноября 2014
Перевод: Любительский (одноголосый, закадровый) [PashaUp]
Оригинальный аудиопоток: английский
Режиссёр: Грег Френсис / Greg Francis-В ролях: Бо Мирчофф, Рон Перлман, Джанкарло Эспозито, Кори Лардж, Титус Уэлливер, Хелстон Сейдж, Рон Элдард, Майкл Эклунд, Киран Лардж, Локлин Манро-Описание: В городке Уорсо, штат Индиана, по традиции опытные детективы устраивают игры в покер, за которыми хвастаются своими самыми поучительными делами перед молодыми коллегами. После одной такой игры главного героя — начинающего детектива Джетера — ждёт опыт, которым он сам сможет похвастаться, если, конечно, высвободится из рук маньяка…
- *6.4 Качество видео: WEB-DL (720p)
Контейнер: MKV
Видео кодек: AVC
Аудио кодек: AC3
Видео: 1280x528 (2.40:1), 3825 kbps, 23.976 fps
Аудио #1: Rus: 384 kbps, 6 ch, 48.0 kHz
Аудио #2: Eng: 384 kbps, 6 ch, 48.0 kHz
Cубтитры: английские

Media Info

Общее
Уникальный идентификатор : 192466479798151019028704780028171956451 (0x90CBB217A6FF7C77BCB68E9053CAB0E3)
Полное имя : Ночь покера_ Poker Night.2014.[WEB-DL.720p](PashaUp).mkv
Формат : Matroska
Версия формата : Version 4 / Version 2
Размер файла : 3,44 Гбайт
Продолжительность : 1 ч. 45 м.
Общий поток : 4686 Кбит/сек
Дата кодирования : UTC 2015-01-17 06:30:21
Программа кодирования : mkvmerge v6.1.0 ('Old Devil') built on Mar 4 2013 09:10:42
Библиотека кодирования : libebml v1.3.0 + libmatroska v1.4.0
Видео
Идентификатор : 1
Формат : AVC
Формат/Информация : Advanced Video Codec
Профиль формата : [email protected]
Параметр CABAC формата : Нет
Параметр ReFrames формата : 2 кадра
Идентификатор кодека : V_MPEG4/ISO/AVC
Продолжительность : 1 ч. 45 м.
Битрейт : 3825 Кбит/сек
Ширина : 1280 пикселей
Высота : 528 пикселей
Соотношение сторон : 2,40:1
Режим частоты кадров : Постоянный
Частота кадров : 23,976 кадра/сек
Цветовое пространство : YUV
Субдискретизация насыщенности : 4:2:0
Битовая глубина : 8 бит
Тип развёртки : Прогрессивная
Бит/(Пиксели*Кадры) : 0.236
Размер потока : 2,81 Гбайт (82%)
Язык : English
Default : Да
Forced : Нет
Основные цвета : BT.709
Характеристики трансфера : BT.709
Коэффициенты матрицы : BT.709
Аудио #1
Идентификатор : 2
Формат : AC-3
Формат/Информация : Audio Coding 3
Расширение режима : CM (complete main)
Параметр Endianness формата : Big
Идентификатор кодека : A_AC3
Продолжительность : 1 ч. 45 м.
Вид битрейта : Постоянный
Битрейт : 384 Кбит/сек
Каналы : 6 каналов
Расположение каналов : Front: L C R, Side: L R, LFE
Частота : 48,0 КГц
Битовая глубина : 16 бит
Метод сжатия : С потерями
Размер потока : 289 Мбайт (8%)
Язык : Russian
Default : Да
Forced : Нет
Аудио #2
Идентификатор : 3
Формат : AC-3
Формат/Информация : Audio Coding 3
Расширение режима : CM (complete main)
Параметр Endianness формата : Big
Идентификатор кодека : A_AC3
Продолжительность : 1 ч. 45 м.
Вид битрейта : Постоянный
Битрейт : 384 Кбит/сек
Каналы : 6 каналов
Расположение каналов : Front: L C R, Side: L R, LFE
Частота : 48,0 КГц
Битовая глубина : 16 бит
Метод сжатия : С потерями
Размер потока : 289 Мбайт (8%)
Язык : English
Default : Нет
Forced : Нет
Текст
Идентификатор : 4
Формат : UTF-8
Идентификатор кодека : S_TEXT/UTF8
Идентификатор кодека/Информация : UTF-8 Plain Text
Язык : English
Default : Нет
Forced : Нет
Меню
00:00:00.000 : en:Wisdom
00:04:51.000 : en:Abducted
00:11:20.000 : en:“You Against Usâ€
00:19:24.000 : en:Monsters
00:26:35.000 : en:Amy
00:30:54.000 : en:Investigation
00:35:27.000 : en:“The Big Momentâ€
00:42:09.000 : en:“The Driveâ€
00:49:12.000 : en:Crazy Glue
00:55:11.000 : en:“Call Your Familyâ€
01:00:57.000 : en:Undercover
01:07:57.000 : en:“Rough Day at Workâ€
01:13:13.000 : en:Gun Pulled
01:18:45.000 : en:“Hey Dadâ€
01:28:25.000 : en:Escape
01:36:40.000 : en:Things Change

Ещё 2

Яндекс.Метрика
Рейтинг@Mail.ru