Ночь покера / Poker Night (Грег Френсис / Greg Francis) [2014 г., боевик, триллер, криминал, WEB-DLRip] VO (PashaUp)

 

Создавать темы 18-Янв-2015 05:02

-Ночь покера / Poker Night-- Производство: Канада, США, Wingman Productions Inc.
Год выпуска: 2014 г.
Жанр: боевик, триллер, криминал
Продолжительность: 01:45:02
Мировая премьера: 20 ноября 2014
Перевод: Любительский (одноголосый, закадровый) [Павел Морозов aka PashaUp - озвучка, Janetta - перевод текста]
Режиссер: Грег Френсис / Greg Francis-В ролях: Бо Мирчофф, Рон Перлман, Джанкарло Эспозито, Кори Лардж, Титус Уэлливер, Хелстон Сейдж, Рон Элдард, Майкл Эклунд, Киран Лардж, Локлин Манро-Описание: В городке Уорсо, штат Индиана, по традиции опытные детективы устраивают игры в покер, за которыми хвастаются своими самыми поучительными делами перед молодыми коллегами. После одной такой игры главного героя — начинающего детектива Джетера — ждет опыт, которым он сам сможет похвастаться, если, конечно, высвободится из рук маньяка…-
Качество видео: WEB-DLRip
Контейнер: AVI
Видео кодек: XviD
Аудио кодек: AC3
Видео: 720x304, 2099 Кбит/сек, 23,976 кадра/сек, 0,400 Бит/(Пиксели*Кадры)
Аудио №1: 448 Кбит/сек, 6 каналов, 48,0 КГц (Русский)
Аудио №2: 384 Кбит/сек, 6 каналов, 48,0 КГц (Английский)
Cубтитры: отсутствуют

Media Info

Общее
Полное имя : D:\movies\pirat.ca\No4.Pok3ra.2014.L.WEB-DLRip.2100MB.avi
Формат : AVI
Формат/Информация : Audio Video Interleave
Профиль формата : OpenDML
Размер файла : 2,16 Гбайт
Продолжительность : 1 ч. 45 м.
Общий поток : 2949 Кбит/сек
Программа кодирования : VirtualDubMod 1.5.10.2 (build 2540/release)
Библиотека кодирования : VirtualDubMod build 2540/release
Видео
Идентификатор : 0
Формат : MPEG-4 Visual
Профиль формата : Advanced [email protected]
Параметр BVOP формата : 2
Параметр QPel формата : Нет
Параметр GMC формата : Без точки перехода
Параметр матрицы формата : Default (MPEG)
Идентификатор кодека : XVID
Идентификатор кодека/Подсказка : XviD
Продолжительность : 1 ч. 45 м.
Битрейт : 2099 Кбит/сек
Ширина : 720 пикселей
Высота : 304 пикселя
Соотношение сторон : 2,35:1
Частота кадров : 23,976 кадра/сек
Цветовое пространство : YUV
Субдискретизация насыщенности : 4:2:0
Битовая глубина : 8 бит
Тип развёртки : Прогрессивная
Метод сжатия : С потерями
Бит/(Пиксели*Кадры) : 0.400
Размер потока : 1,54 Гбайт (71%)
Библиотека кодирования : XviD 1.2.1 (UTC 2008-12-04)
Аудио #1
Идентификатор : 1
Формат : AC-3
Формат/Информация : Audio Coding 3
Расширение режима : CM (complete main)
Параметр Endianness формата : Big
Идентификатор кодека : 2000
Продолжительность : 1 ч. 45 м.
Вид битрейта : Постоянный
Битрейт : 448 Кбит/сек
Каналы : 6 каналов
Расположение каналов : Front: L C R, Side: L R, LFE
Частота : 48,0 КГц
Битовая глубина : 16 бит
Метод сжатия : С потерями
Размер потока : 337 Мбайт (15%)
Выравнивание : Разделение по промежуткам
Продолжительность промежутка : 42 мс. (1,00 видеокадр)
Время предзагрузки промежутка : 500 мс.
Аудио #2
Идентификатор : 2
Формат : AC-3
Формат/Информация : Audio Coding 3
Расширение режима : CM (complete main)
Параметр Endianness формата : Big
Идентификатор кодека : 2000
Продолжительность : 1 ч. 45 м.
Вид битрейта : Постоянный
Битрейт : 384 Кбит/сек
Каналы : 6 каналов
Расположение каналов : Front: L C R, Side: L R, LFE
Частота : 48,0 КГц
Битовая глубина : 16 бит
Метод сжатия : С потерями
Размер потока : 289 Мбайт (13%)
Выравнивание : Разделение по промежуткам
Продолжительность промежутка : 42 мс. (1,00 видеокадр)
Время предзагрузки промежутка : 500 мс.

Скриншоты

Яндекс.Метрика
Рейтинг@Mail.ru