Во плоти / In the Flesh / Сезон: 2 / Серии: 5 из 6 (Джонни Кэмпбелл / Jonny Campbell) [2014 г., ужасы, драма, ..., WEB-DLRip] MVO (LostFilm) + Original (Eng) [обновляемая]

 

Создавать темы 18-Янв-2015 04:46

Во плоти / In the Flesh
«Life is hard. Death isn't any easier»
- Русское название: Во плоти
Оригинальное название: In the Flesh
Страна: Великобритания
Год выпуска: 2014
Жанр: ужасы, драма, ...-Озвучка: Студия
Перевод: Многоголосый закадровый, профессиональный
Оригинальный аудиопоток: английский-Премьера (мир): 17 марта 2013-Режиссер: Джонни Кэмпбелл / Jonny Campbell, Джим О’Хенлон / Jim O'Hanlon, Дэймон Томас / Damon Thomas, ...
В главных ролях: Люк Ньюберри (Кирен Уокер), Харриет Кейнс (Джем Уокер), Мари Критчли (Сью Уокер), Стив Купер (Стив Уокер), Эмили Беван (Эми Дайер), Кевин Саттон (Гэри Кендал), Стивен Томпсон (Филип Уилсон) ...-Описание фильма:
Через четыре года после начала эпидемии правительство начинает реабилитировать обратившихся в зомби и возвращать их в общество, в том числе и подростка Кирена Уокера, который возвращается домой в свой маленький городок в Ланкашире, чтобы встретиться с враждебностью и своими собственными демонами.-Сезон: 2
Серии: 5 из 6 серий
Продолжительность: ~ 00:59:00 мин серия-Качество видео: WEB-DLRip
Формат: AVI
Видеокодек: XviD
Аудиокодек: AC-3
Видео: MPEG-4 Visual at 1500 Кбит/сек: 720 x 400 (1.800) at 25.000 fps, 0.21 Бит/Пиксели
Аудио Rus: AC-3 at 192 Кбит/сек: 2 канала, 48,0 КГц |LostFilm|
Аудио Eng: AC-3 at 192 Кбит/сек: 2 канала, 48,0 КГц |Original|
- -

MediaInfo:

Общее
Полное имя : E:\_Сериалы\_Сериалы\Во плоти\In the Flesh.s02.LostFilm\In.The.Flesh.S02E01.rus.eng.LostFilm.TV.avi
Формат : AVI
Формат/Информация : Audio Video Interleave
Размер файла : 759 Мбайт
Продолжительность : 55 м.
Общий поток : 1898 Кбит/сек
Программа кодирования : VirtualDubMod 1.5.10.2 (build 2540/release)
Библиотека кодирования : VirtualDubMod build 2540/release
Видео
Идентификатор : 0
Формат : MPEG-4 Visual
Профиль формата : Advanced [email protected]
Параметр BVOP формата : 2
Параметр QPel формата : Нет
Параметр GMC формата : Без точки перехода
Параметр матрицы формата : Default (MPEG)
Идентификатор кодека : XVID
Идентификатор кодека/Подсказка : XviD
Продолжительность : 55 м.
Битрейт : 1500 Кбит/сек
Ширина : 720 пикселей
Высота : 400 пикселей
Соотношение сторон : 16:9
Частота кадров : 25,000 кадров/сек
Цветовое пространство : YUV
Субдискретизация насыщенности : 4:2:0
Битовая глубина : 8 бит
Тип развёртки : Прогрессивная
Метод сжатия : С потерями
Бит/(Пиксели*Кадры) : 0.208
Размер потока : 599 Мбайт (79%)
Библиотека кодирования : XviD 1.2.0.dev47 (UTC 2006-11-01)
Аудио #1
Идентификатор : 1
Формат : AC-3
Формат/Информация : Audio Coding 3
Расширение режима : CM (complete main)
Параметр Endianness формата : Big
Идентификатор кодека : 2000
Продолжительность : 55 м.
Вид битрейта : Постоянный
Битрейт : 192 Кбит/сек
Каналы : 2 канала
Расположение каналов : Front: L R
Частота : 48,0 КГц
Битовая глубина : 16 бит
Метод сжатия : С потерями
Размер потока : 76,7 Мбайт (10%)
Выравнивание : Разделение по промежуткам
Продолжительность промежутка : 40 мс. (1,00 видеокадр)
Время предзагрузки промежутка : 500 мс.
Аудио #2
Идентификатор : 2
Формат : AC-3
Формат/Информация : Audio Coding 3
Расширение режима : CM (complete main)
Параметр Endianness формата : Big
Идентификатор кодека : 2000
Продолжительность : 55 м.
Вид битрейта : Постоянный
Битрейт : 192 Кбит/сек
Каналы : 2 канала
Расположение каналов : Front: L R
Частота : 48,0 КГц
Битовая глубина : 16 бит
Метод сжатия : С потерями
Размер потока : 76,7 Мбайт (10%)
Выравнивание : Разделение по промежуткам
Продолжительность промежутка : 40 мс. (1,00 видеокадр)
Время предзагрузки промежутка : 500 мс.
-

Скриншот c названием фильма

-Скриншоты:
-

Еще

-

Внимание! Раздача ведётся путём добавления новых серий!

Раздача ведётся путём добавления новых серий; при каждом добавлении создаётся новый торрент.
Чтобы начать докачку новой серии, пользователям необходимо сделать следующее:
1. остановить скачивание,
2. удалить старый торрент у себя из клиента (старые серии удалять не надо),
3. скачать новый торрент и запустить его у себя в клиенте вместо старого, при этом указать клиенту путь в старую папку, куда и должно происходить скачивание новых серий.
Ваш клиент при этом должен произвести хеширование (проверку) старой папки (если не производит сам - помогите ему сделать это), и будет докачивать только те серии которых у вас ещё нет. Старые серии при этом не удаляются, а продолжают раздаваться!
Eсли вы уже удалили старые серии, то предотвратить повторную закачку старых серий можно, отжав галочку в соответствующих местах при запуске нового торрента. По возможности, желательно не удалять старые серии как можно дольше, чтобы релизёр не столько продолжал раздавать старые серии, а смог сконцентрироваться на новых.
Совет для тех, кто не хочет ждать перехеширования:
Создайте ещё одну папку рядом с папкой сериала (рядом, а не в ней!!!). Каждую новую серию после удачной загрузки копируйте в новую папку так чтобы ваша основная папка всегда была пуста. Когда ваш новый торрент предложит вам закачать все файлы, выберете только последнюю. Для сидирования же укажите адрес новой папки.
Как закачать отдельный файл из торрента или докачать ранее пропущенные файлы торрента!
-

Как закачать отдельный файл

1. Открыть торрент
2. Снять галки с тех файлов торрента, которые мы не хотим закачивать. Оставляем только на нужных нам файлах (файле).
3. Нажать О.К.
В клиенте utorrent
Инструкция
1) Открыть торрент

2) Снять галки с тех файлов торрента, которые мы не хотим закачивать:
* либо вручную, снимая с каждого файла галку( скрин №1)
* либо, нажав кнопку "Снять метки (Select None)", сняв сразу со всех файлов(скрин №2)
№1

№2

Оставляем только на нужных нам файлах (файле).

3)Нажать О.К
-Добавлена пятая серия второго сезона
Яндекс.Метрика
Рейтинг@Mail.ru