[ Сегодня на трекере фрилич! Идет свободное скачивание без начисления Download ]

Сукияки Вестерн Джанго / Sukiyaki Western Django (Такаши Миике / Takashi Miike) [2007 г., Боевик, вестерн, BDRip, 720p] AVO (Сербин) + DVO (Гланц и И.Королёва) + original (Eng)

 

Создавать темы 17-Янв-2015 05:08

Сукияки Вестерн Джанго / Sukiyaki Western Django
Год выпуска: 2007
Производство: Япония
Жанр: Боевик, вестерн
Продолжительность: 02:00:34
Перевод: Авторский (одноголосый, закадровый) Юрий Сербин
Перевод: Профессиональный (двухголосый, закадровый) Гланц и Инна Королёва
Оригинальный аудиопоток: английский
Субтитры: отсутствуют
Режиссер: Такаши Миике / Takashi Miike
В ролях: Хидеаки Ито, Масанобу Андо, Коити Сато, Каори Момои, Юсуке Исейа, Рэндзи Исибаси, Йошино Кимура, Квентин Тарантино, Такааки Исибаси, Теруюки Кагава
Описание: Через несколько сот лет после печально знаменитой битвы в заливе Данноура (1185) в далекой японской горной деревушке нарастает напряжение. Одетая в белое банда Гэндзи (из клана Тайра) и одетая в красное банда Хэйкэ (из клана Минамото) вступили в жестокое противостояние, порожденное слухами о спрятанном золоте.
Когда в деревне появляется безымянный странник, обремененный темным прошлым, но мастерски владеющий искусством стрельбы, и Гэндзи, и Хэйкэ задают себе вопрос, на чью сторону он встанет. Битва за власть, предательство, похоть и любовь переплетаются, пропитывая землю кровью. Историческая война между кланами вновь обретает жизнь в формах «спагетти-вестерна».
Сэмпл , , КиноПоиск
Качество видео: BDRip
Контейнер: MKV
Стандарт разрешения: 720p
Видео кодек: H.264
Аудио кодек: AC3
Видео: 1280x546, 23.976fps, 6531 Kbps, 0.390 bt/px
Аудио : AC-3, 384 Kbps, 6 ch, 48.0 KHz Rus Сербин
Аудио : AC-3, 384 Kbps, 6 ch, 48.0 KHz Rus Гланц и Королёва
Аудио : AC-3, 384 Kbps, 6 ch, 48.0 KHz Eng Original

Media Info

G:\загрузки\Sukiyaki_Western_Django.mkv
General
Unique ID : 183807288358145046450754721875077063939 (0x8A47FEFE16396979AF8D7128D3B76503)
Complete name : G:\загрузки\Sukiyaki_Western_Django.mkv
Format : Matroska
Format version : Version 1
File size : 6.60 GiB
Duration : 2h 0mn
Overall bit rate : 7 839 Kbps
Encoded date : UTC 2015-01-14 18:51:16
Writing application : mkvmerge v2.5.3 ('Boogie') built on Mar 7 2009 15:00:41
Writing library : libebml v0.7.7 + libmatroska v0.8.1
Video #1
ID : 1
Format : AVC
Format/Info : Advanced Video Codec
Format profile : [email protected]
Format settings, CABAC : Yes
Format settings, ReFrames : 12 frames
Codec ID : V_MPEG4/ISO/AVC
Duration : 2h 0mn
Bit rate : 6 531 Kbps
Width : 1 280 pixels
Height : 546 pixels
Display aspect ratio : 2.35:1
Frame rate mode : Constant
Frame rate : 23.976 fps
Color space : YUV
Chroma subsampling : 4:2:0
Bit depth : 8 bits
Scan type : Progressive
Bits/(Pixel*Frame) : 0.390
Stream size : 5.50 GiB (83%)
Writing library : x264 core 130 r2273 b3065e6
Encoding settings : cabac=1 / ref=12 / deblock=1:-3:-3 / analyse=0x3:0x133 / me=umh / subme=11 / psy=1 / psy_rd=1.00:0.15 / mixed_ref=1 / me_range=32 / chroma_me=1 / trellis=2 / 8x8dct=1 / cqm=0 / deadzone=21,11 / fast_pskip=1 / chroma_qp_offset=-3 / threads=6 / lookahead_threads=1 / sliced_threads=0 / nr=0 / decimate=1 / interlaced=0 / bluray_compat=0 / constrained_intra=0 / bframes=8 / b_pyramid=2 / b_adapt=2 / b_bias=0 / direct=1 / weightb=1 / open_gop=0 / weightp=2 / keyint=250 / keyint_min=23 / scenecut=40 / intra_refresh=0 / rc_lookahead=50 / rc=crf / mbtree=1 / crf=16.6 / qcomp=0.60 / qpmin=0 / qpmax=51 / qpstep=4 / ip_ratio=1.40 / aq=1:1.00
Language : English
Default : Yes
Forced : No
Audio #2
ID : 2
Format : AC-3
Format/Info : Audio Coding 3
Mode extension : CM (complete main)
Format settings, Endianness : Big
Codec ID : A_AC3
Duration : 2h 0mn
Bit rate mode : Constant
Bit rate : 384 Kbps
Channel(s) : 6 channels
Channel positions : Front: L C R, Side: L R, LFE
Sampling rate : 48.0 KHz
Bit depth : 16 bits
Compression mode : Lossy
Stream size : 331 MiB (5%)
Title : AVO Сербин
Language : Russian
Default : Yes
Forced : No
Audio #3
ID : 3
Format : AC-3
Format/Info : Audio Coding 3
Mode extension : CM (complete main)
Format settings, Endianness : Big
Codec ID : A_AC3
Duration : 2h 0mn
Bit rate mode : Constant
Bit rate : 384 Kbps
Channel(s) : 6 channels
Channel positions : Front: L C R, Side: L R, LFE
Sampling rate : 48.0 KHz
Bit depth : 16 bits
Compression mode : Lossy
Stream size : 331 MiB (5%)
Title : DVO Гланц и Инна Королёва
Language : Russian
Default : No
Forced : No
Audio #4
ID : 4
Format : AC-3
Format/Info : Audio Coding 3
Mode extension : CM (complete main)
Format settings, Endianness : Big
Codec ID : A_AC3
Duration : 2h 0mn
Bit rate mode : Constant
Bit rate : 384 Kbps
Channel(s) : 6 channels
Channel positions : Front: L C R, Side: L R, LFE
Sampling rate : 48.0 KHz
Bit depth : 16 bits
Compression mode : Lossy
Stream size : 331 MiB (5%)
Language : English
Default : No
Forced : No

log x.264

x264 [info]: frame I:1057  Avg QP:14.23  size:183308
x264 [info]: frame P:35885 Avg QP:17.47 size: 69104
x264 [info]: frame B:136505 Avg QP:20.34 size: 24684
x264 [info]: consecutive B-frames: 1.6% 3.1% 4.7% 18.8% 18.4% 35.0% 8.6% 5.1% 4.8%
x264 [info]: mb I I16..4: 11.2% 63.5% 25.3%
x264 [info]: mb P I16..4: 0.9% 15.7% 2.9% P16..4: 23.1% 30.5% 17.8% 4.6% 0.9% skip: 3.6%
x264 [info]: mb B I16..4: 0.2% 4.0% 0.6% B16..8: 32.3% 24.4% 5.5% direct: 9.3% skip:23.8% L0:42.8% L1:36.8% BI:20.4%
x264 [info]: 8x8 transform intra:80.9% inter:48.9%
x264 [info]: coded y,uvDC,uvAC intra: 89.9% 91.3% 78.1% inter: 41.8% 31.2% 13.3%
x264 [info]: i16 v,h,dc,p: 45% 9% 16% 29%
x264 [info]: i8 v,h,dc,ddl,ddr,vr,hd,vl,hu: 12% 8% 12% 9% 13% 11% 12% 11% 13%
x264 [info]: i4 v,h,dc,ddl,ddr,vr,hd,vl,hu: 37% 5% 6% 6% 10% 10% 9% 8% 9%
x264 [info]: i8c dc,h,v,p: 42% 20% 19% 19%
x264 [info]: Weighted P-Frames: Y:3.1% UV:1.4%
x264 [info]: ref P L0: 34.8% 9.7% 20.0% 7.1% 7.5% 4.4% 5.1% 2.3% 2.9% 1.8% 2.4% 1.7% 0.2% 0.0%
x264 [info]: ref B L0: 67.4% 13.2% 6.2% 3.6% 2.6% 2.3% 1.7% 1.2% 1.0% 0.6% 0.2%
x264 [info]: ref B L1: 92.3% 7.7%
x264 [info]: kb/s:6682.79
x264 [total]: encoded 173447 frames, 2.48 fps, 6682.79 kb/s

Скриншоты

Яндекс.Метрика
Рейтинг@Mail.ru