[ Сегодня на трекере фрилич! Идет свободное скачивание без начисления Download ]

(Rock) Алиса - Изгой - 2005 [FLAC, image+.cue, lossless]

 

Создавать темы 17-Янв-2015 05:00

-Алиса / Изгой-- Год издания: 2005
Страна: Россия
Жанр: Rock
Продолжительность: 00:49:03-Лейбл издания: REAL RECORDS
Страна-выпуска диска: Россия
Формат: FLAC
Битрейт аудио: lossless
Тип рипа: image+.cue
Наличие сканов в содержимом раздачи: да-

Трэклист

1. Моя война
2. Изгой
3. Звезда по имени Рок
4. Чёрный
5. Солнце — Иерусалим
6. Слово
7. Бойся, проси и верь!
8. Звери
9. Rock-n-roll крест
10. Крещение

Лог создания рипа

xact Audio Copy V1.0 beta 4 from 7. December 2014
Отчёт EAC об извлечении, выполненном 13. января 2015, 6:11
Алиса / Изгой
Дисковод: Optiarc DVD RW AD-7740H Adapter: 1 ID: 0
Режим чтения : Достоверность
Использование точного потока : Да
Отключение кэша аудио : Да
Использование указателей C2 : Нет
Коррекция смещения при чтении : 48
Способность читать области Lead-in и Lead-out : Нет
Заполнение пропущенных сэмплов тишиной : Да
Удаление блоков с тишиной в начале и конце : Нет
При вычислениях CRC использовались нулевые сэмплы : Да
Интерфейс : Встроенный Win32-интерфейс для Win NT/2000
Выходной формат : Пользовательский кодировщик
Выбранный битрейт : 128 kBit/s
Качество : Высокий
Добавление ID3-тега : Нет
Утилита сжатия : C:\Program Files (x86)\Exact Audio Copy\Flac\flac.exe
Дополнительные параметры : -V -8 -T "Date=%year%" -T "Genre=%genre%" %source%
TOC извлечённого CD
Трек | Старт | Длительность | Начальный сектор | Конечный сектор
---------------------------------------------------------------------
1 | 0:00.00 | 4:25.10 | 0 | 19884
2 | 4:25.10 | 4:15.51 | 19885 | 39060
3 | 8:40.61 | 4:13.55 | 39061 | 58090
4 | 12:54.41 | 4:09.69 | 58091 | 76834
5 | 17:04.35 | 9:31.63 | 76835 | 119722
6 | 26:36.23 | 4:25.67 | 119723 | 139664
7 | 31:02.15 | 3:20.05 | 139665 | 154669
8 | 34:22.20 | 4:19.20 | 154670 | 174114
9 | 38:41.40 | 4:46.58 | 174115 | 195622
10 | 43:28.23 | 5:34.60 | 195623 | 220732
Характеристики диапазона извлечения и сообщения об ошибках
Выбранный диапазон
Имя файла H:\МУЗЫКА\РОК\АлисА - Изгой\Алиса - Изгой.wav
Пиковый уровень 100.0 %
Скорость извлечения 1.9 X
Качество диапазона 100.0 %
CRC копии C7A27353
Копирование... OK
Ошибок не произошло
AccurateRip: сводка
Трек 1 : извлечено точно (доверие 3) [6704A4BC] (AR v2)
Трек 2 : извлечено точно (доверие 3) [A00A2521] (AR v2)
Трек 3 : извлечено точно (доверие 3) [853B00CC] (AR v2)
Трек 4 : извлечено точно (доверие 3) [D76A5A8F] (AR v2)
Трек 5 : извлечено точно (доверие 3) [0E1FEC88] (AR v2)
Трек 6 : извлечено точно (доверие 3) [FC1B09ED] (AR v2)
Трек 7 : извлечено точно (доверие 3) [02532ADE] (AR v2)
Трек 8 : извлечено точно (доверие 3) [969FB706] (AR v2)
Трек 9 : извлечено точно (доверие 3) [7350DADC] (AR v2)
Трек 10 : извлечено точно (доверие 3) [F720B038] (AR v2)
Все треки извлечены точно
Конец отчёта
==== Контрольная сумма отчёта 76E2B4C568D17C03AD456BFB90797F0F554B1F4F6872D607E42F683F14A6CA7F ====

Индексная карта (non-compilant .cue)

REM GENRE Rock
REM DATE 2005
REM DISCID 800B7F0A
REM COMMENT "ExactAudioCopy v1.0b4"
PERFORMER "Алиса"
TITLE "Изгой"
FILE "Алиса - Изгой.FLAC" WAVE
TRACK 01 AUDIO
TITLE "Моя война"
PERFORMER "Алиса"
INDEX 01 00:00:00
TRACK 02 AUDIO
TITLE "Изгой"
PERFORMER "Алиса"
INDEX 01 04:25:10
TRACK 03 AUDIO
TITLE "Звезда по имени 'рок'"
PERFORMER "Алиса"
INDEX 01 08:40:61
TRACK 04 AUDIO
TITLE "Черный"
PERFORMER "Алиса"
INDEX 01 12:54:41
TRACK 05 AUDIO
TITLE "Солнце - Иерусалим"
PERFORMER "Алиса"
INDEX 01 17:04:35
TRACK 06 AUDIO
TITLE "Слово"
PERFORMER "Алиса"
INDEX 01 26:36:23
TRACK 07 AUDIO
TITLE "Бойся, проси и верь"
PERFORMER "Алиса"
INDEX 01 31:02:15
TRACK 08 AUDIO
TITLE "Звери"
PERFORMER "Алиса"
INDEX 01 34:22:20
TRACK 09 AUDIO
TITLE "Rock'N'Roll крест"
PERFORMER "Алиса"
INDEX 01 38:41:40
TRACK 10 AUDIO
TITLE "Крещение"
PERFORMER "Алиса"
INDEX 01 43:28:23

Об исполнителе (группе)

«Алиса» — советская и российская рок-группа, образованная в 1983 году в Ленинграде.
Лидер и автор большинства песен группы — вокалист Константин Кинчев.
По состоянию на январь 2015 г. выпущено 19 студийных альбомов.

Об альбоме (сборнике)

"Изгой" — 13 студийный альбом рок-группы «Алиса». В продаже появился в октябре 2005 года.
Это первый диск, записанный в новом составе: покинувших группу гитариста Андрея Шаталина и барабанщика Михаила Нефёдова заменили Игорь Романов и Андрей Вдовиченко.
"Изгой" - один из самых тяжёлых альбомов «Алисы», созданный с уклоном в нью-метал. Над альбомом работали немецкие звукорежиссёры, с одним из которых группа уже имела опыт работы — над предыдущим альбомом «Сейчас позднее, чем ты думаешь».

Состав

Константин Кинчев — вокал
Пётр Самойлов — бас, вокал
Евгений Лёвин — гитары
Игорь Романов — гитары
Андрей Вдовиченко — барабаны
Дмитрий «Ослик» Парфёнов — клавишные, петли, эдиты, комп.
Юрий Шлапаков — звук
Константин «Коха» Шустарёв — весь бэк-вокал
Яндекс.Метрика
Рейтинг@Mail.ru