Каждый десятый (Михаил Ордовский) [1984 г., военный, DVB]

 

Создавать темы 17-Янв-2015 04:49

-Каждый десятый-- Производство: СССР. Ленфильм
Режиссер: Михаил Ордовский
Жанр: военный
Год выпуска: 1984 г.
Продолжительность: 01:06:31
В ролях: Р. Зайцева, Л. Борисов, В. Ерёмин, И. Иванов, В. Осипчук, А. Яценковский, Н. Кузьмин,-Описание: Пять красноармейцев, оказавшиеся в тылу колчаковцев, захватили вражеский броневик и взяли в плен офицера разведки. От него они узнают, что вскоре по реке должен пройти пароход с оружием и боеприпасами для предстоящего контрнаступления белых-Качество видео: DVB
Контейнер: MPEG-PS
Видео кодек: MPEG Video
Аудио кодек: MP3
Видео: 704x576; 2905 kbps; 25 fps; 0.287 bit/pixel
Аудио: 192 kbps; 2 ch; 48 kHz
Cубтитры: отсутствуют

Media Info

Complete name : D:\Torrent\Kazdij_desatij_[Pirat.ca].torrent.mpg
Format : MPEG-PS
File size : 1.47 GiB
Duration : 1h 6mn
Overall bit rate mode : Variable
Overall bit rate : 3 160 Kbps
Video
ID : 224 (0xE0)
Format : MPEG Video
Format version : Version 2
Format profile : [email protected]
Format settings, BVOP : No
Format settings, Matrix : Custom
Format settings, GOP : Variable
Format settings, picture st : Frame
Duration : 1h 6mn
Bit rate mode : Variable
Bit rate : 2 905 Kbps
Maximum bit rate : 15.0 Mbps
Width : 704 pixels
Height : 576 pixels
Display aspect ratio : 4:3
Frame rate : 25.000 fps
Standard : PAL
Color space : YUV
Chroma subsampling : 4:2:0
Bit depth : 8 bits
Scan type : Interlaced
Scan order : Top Field First
Compression mode : Lossy
Bits/(Pixel*Frame) : 0.287
Time code of first frame : 00:00:00:00
Time code source : Group of pictures header
GOP, Open/Closed : Open
Stream size : 1.35 GiB (92%)
Audio
ID : 192 (0xC0)
Format : MPEG Audio
Format version : Version 1
Format profile : Layer 2
Duration : 1h 6mn
Bit rate mode : Constant
Bit rate : 192 Kbps
Channel(s) : 2 channels
Sampling rate : 48.0 KHz
Compression mode : Lossy
Delay relative to video : 14ms
Stream size : 91.4 MiB (6%)

Скриншоты

Раздача

Раздача с 14.00 до 2.30 (время московское)
Яндекс.Метрика
Рейтинг@Mail.ru