Beyoncé - 7/11 [2014 г.] (Trap, hip hop) [WEB-DL, 1080p]

 

Создавать темы 17-Янв-2015 04:45

-Beyoncé - 7/11-- Год выпуска: 2014 г.
Страна: США
Жанр: Trap, hip hop
Продолжительность: 00:03:36-Качество видео: WEB-DL
Контейнер: MP4
Стандарт разрешения: 1080p
Видео кодек: H.264
Аудио кодек: AAC
Видео: 1920x1080, 2817 Кбит/сек, 23,974 кадра/сек, 0.057 Бит/(Пиксели*Кадры)
Аудио: 254 Кбит/сек, 2 канала, 44,1 КГц-

Media Info

Общее
Полное имя                               : D:\movies\pirat.ca\clip\Beyonce  7-11.mp4
Формат                                   : MPEG-4
Профиль формата                          : Base Media
Идентификатор кодека                     : isom
Размер файла                             : 79,5 Мбайт
Продолжительность                        : 3 м. 36 с.
Режим общего битрейта                    : Переменный
Общий поток                              : 3073 Кбит/сек
Дата кодирования                         : UTC 2015-01-15 12:24:21
Дата пометки                             : UTC 2015-01-15 12:24:21
Видео
Идентификатор                            : 1
Формат                                   : AVC
Формат/Информация                        : Advanced Video Codec
Профиль формата                          : [email protected]
Параметр CABAC формата                   : Да
Параметр ReFrames формата                : 3 кадра
Идентификатор кодека                     : avc1
Идентификатор кодека/Информация          : Advanced Video Coding
Продолжительность                        : 3 м. 36 с.
Битрейт                                  : 2817 Кбит/сек
Максимальный битрейт                     : 6121 Кбит/сек
Ширина                                   : 1920 пикселей
Высота                                   : 1080 пикселей
Соотношение сторон                       : 16:9
Режим частоты кадров                     : Переменный
Частота кадров                           : 23,976 кадра/сек
Минимальная частота кадров               : 23,974 кадра/сек
Максимальная частота кадров              : 23,981 кадра/сек
Цветовое пространство                    : YUV
Субдискретизация насыщенности            : 4:2:0
Битовая глубина                          : 8 бит
Тип развёртки                            : Прогрессивная
Бит/(Пиксели*Кадры)                      : 0.057
Размер потока                            : 72,8 Мбайт (92%)
Дата кодирования                         : UTC 2014-11-25 17:26:50
Дата пометки                             : UTC 2015-01-15 12:24:22
Аудио
Идентификатор                            : 2
Формат                                   : AAC
Формат/Информация                        : Advanced Audio Codec
Профиль формата                          : LC
Идентификатор кодека                     : 40
Продолжительность                        : 3 м. 36 с.
Вид битрейта                             : Переменный
Битрейт                                  : 254 Кбит/сек
Максимальный битрейт                     : 265 Кбит/сек
Каналы                                   : 2 канала
Расположение каналов                     : Front: L R
Частота                                  : 44,1 КГц
Метод сжатия                             : С потерями
Размер потока                            : 6,56 Мбайт (8%)
Дата кодирования                         : UTC 2014-11-25 17:24:13
Дата пометки                             : UTC 2015-01-15 12:24:22

Скриншоты

Яндекс.Метрика
Рейтинг@Mail.ru