[ Сегодня на трекере фрилич! Идет свободное скачивание без начисления Download ]

Убийцы фазана / Fasandræberne (Миккель Нёргор / Mikkel Nørgård) [2014 г., Триллер,Криминал, WEB-DLRip] VO

 

Создавать темы 17-Янв-2015 04:43

-Убийцы фазана / Fasandræberne-- Производство: Дания
Год выпуска: 2014 г.
Жанр: Триллер,Криминал
Продолжительность: 01:54:54
Мировая премьера: 18 сентября 2014
Перевод: Любительский (одноголосый, закадровый) [Антон Агапов aka datynet]
Режиссер: Миккель Нёргор / Mikkel Nørgård-В ролях: Николай Ли Каас, Фарес Фарес, Даница Чурчич, Сара-Софи Бусснин, Йоханна Шмидт, Пилу Асбек, Давид Денсик-Описание: Детективу Карлу Мёрку попадает в руки дело об убийстве двадцатилетней давности. Тогда, в 1994 году, в небольшом загородном доме произошло шокирующее своей жестокостью убийство двух детей-близняшек. Хотя ряд улик указывал на то, что в этом преступлении была замешана компания молодых студентов, расследование вскоре было закрыто, поскольку местный отшельник взял на себя вину за двойное убийство. Однако Карл находит в этом деле явные нестыковки, которые заставляют его подозревать, что настоящие виновники трагедии остались безнаказанными.-
Качество видео: WEB-DLRip
Контейнер: AVI
Видео кодек: XviD
Аудио кодек: AC3
Видео: MPEG-4 Visual at 1307 Кбит/сек : 720 x 304 at 25.000 fps Бит/Пиксели : 0.239
Аудио: AC-3 at 384 Кбит/сек : 6 каналов, 48,0 КГц
Cубтитры: отсутствуют

Media Info

Общее
Полное имя : D:\µTorrent\razda4a\Fasandræberne.2014..avi
Формат : AVI
Формат/Информация : Audio Video Interleave
Размер файла : 1,37 Гбайт
Продолжительность : 1 ч. 54 м.
Общий поток : 1701 Кбит/сек
Программа кодирования : VirtualDubMod 1.5.10.2 (build 2542/release)
Библиотека кодирования : VirtualDubMod build 2542/release
Видео
Идентификатор : 0
Формат : MPEG-4 Visual
Профиль формата : Advanced [email protected]
Параметр BVOP формата : 2
Параметр QPel формата : Нет
Параметр GMC формата : Без точки перехода
Параметр матрицы формата : Default (MPEG)
Идентификатор кодека : XVID
Идентификатор кодека/Подсказка : XviD
Продолжительность : 1 ч. 54 м.
Битрейт : 1307 Кбит/сек
Ширина : 720 пикселей
Высота : 304 пикселя
Соотношение сторон : 2,35:1
Частота кадров : 25,000 кадров/сек
Цветовое пространство : YUV
Субдискретизация насыщенности : 4:2:0
Битовая глубина : 8 бит
Тип развёртки : Прогрессивная
Метод сжатия : С потерями
Бит/(Пиксели*Кадры) : 0.239
Размер потока : 1,05 Гбайт (77%)
Библиотека кодирования : XviD 1.2.1 (UTC 2008-12-04)
Аудио
Идентификатор : 1
Формат : AC-3
Формат/Информация : Audio Coding 3
Расширение режима : CM (complete main)
Параметр Endianness формата : Big
Идентификатор кодека : 2000
Продолжительность : 1 ч. 54 м.
Вид битрейта : Постоянный
Битрейт : 384 Кбит/сек
Каналы : 6 каналов
Расположение каналов : Front: L C R, Side: L R, LFE
Частота : 48,0 КГц
Битовая глубина : 16 бит
Метод сжатия : С потерями
Размер потока : 316 Мбайт (23%)
Выравнивание : Разделение по промежуткам
Продолжительность промежутка : 40 мс. (1,00 видеокадр)
Время предзагрузки промежутка : 500 мс.

Скриншоты

Яндекс.Метрика
Рейтинг@Mail.ru