[ Сегодня на трекере фрилич! Идет свободное скачивание без начисления Download ]

Левиафан (Андрей Звягинцев) [2014 г., Драма, WEB-DL 1080p] O (iTunes) + Sub (Eng, hardsub)

 

Создавать темы 17-Янв-2015 04:38

-Левиафан-- Производство: Россия
Режиссер: Андрей Звягинцев
Жанр: Драма
Год выпуска: 2014 г.
Продолжительность: 2:21:03
Российская премьера: 5 февраля 2015, «Двадцатый Век Фокс СНГ», «A Company»
премьера (мир): 23 мая 2014
В ролях: Алексей Серебряков, Елена Лядова, Владимир Вдовиченков, Роман Мадянов, Анна Уколова, Алексей Розин, Сергей Походаев, Валерий Гришко, Сергей Бачурский, Платон Каменев-Описание: В центре истории — живущий на севере Николай, который вместе с отцом построил дом и мастерскую. Но его нормальная жизнь рушится под влиянием судьбы.-Сэмпл КиноПоиск
Качество видео: WEB-DL 1080p
Контейнер: MKV
Видео кодек: AVC
Аудио кодек: AC3
Видео: AVC at 3742 Кбит/сек : 1912 x 794 at 24.000 fps
Аудио: AC-3 at 384 Кбит/сек : 6 каналов, 48,0 КГц : ru
Cубтитры: английские неотключаемые

Media Info

Общее
Уникальный идентификатор : 237310965319974661783863076344137726434 (0xB2886DEEBD2EF2AB9F9192B06E5B39E2)
Полное имя : D:\µTorrent\razda4a\Lev1afaH.2014.O.WEB-DL.1080p_.mkv
Формат : Matroska
Версия формата : Version 4 / Version 2
Размер файла : 4,16 Гбайт
Продолжительность : 2 ч. 21 м.
Общий поток : 4210 Кбит/сек
Дата кодирования : UTC 2015-01-13 15:50:07
Программа кодирования : mkvmerge v6.9.1 ('Blue Panther') 64bit built on Apr 18 2014 18:23:38
Библиотека кодирования : libebml v1.3.0 + libmatroska v1.4.1
Видео
Идентификатор : 1
Формат : AVC
Формат/Информация : Advanced Video Codec
Профиль формата : [email protected]
Параметр CABAC формата : Да
Параметр ReFrames формата : 5 кадров
Идентификатор кодека : V_MPEG4/ISO/AVC
Продолжительность : 2 ч. 21 м.
Битрейт : 3742 Кбит/сек
Ширина : 1912 пикселей
Высота : 794 пикселя
Соотношение сторон : 2,40:1
Режим частоты кадров : Постоянный
Частота кадров : 24,000 кадра/сек
Цветовое пространство : YUV
Субдискретизация насыщенности : 4:2:0
Битовая глубина : 8 бит
Тип развёртки : Прогрессивная
Бит/(Пиксели*Кадры) : 0.103
Размер потока : 3,70 Гбайт (89%)
Язык : English
Default : Да
Forced : Нет
Основные цвета : BT.709
Характеристики трансфера : BT.709
Коэффициенты матрицы : BT.709
Аудио
Идентификатор : 2
Формат : AC-3
Формат/Информация : Audio Coding 3
Расширение режима : CM (complete main)
Параметр Endianness формата : Big
Идентификатор кодека : A_AC3
Продолжительность : 2 ч. 21 м.
Вид битрейта : Постоянный
Битрейт : 384 Кбит/сек
Каналы : 6 каналов
Расположение каналов : Front: L C R, Side: L R, LFE
Частота : 48,0 КГц
Битовая глубина : 16 бит
Метод сжатия : С потерями
Размер потока : 388 Мбайт (9%)
Язык : Russian
Default : Да
Forced : Нет
Меню
00:00:00.000 : en:Chapter 1
00:12:20.000 : en:Chapter 2
00:24:27.000 : en:Chapter 3
00:38:07.000 : en:Chapter 4
00:48:23.000 : en:Chapter 5
01:00:49.000 : en:Chapter 6
01:15:09.000 : en:Chapter 7
01:26:44.000 : en:Chapter 8
01:37:39.000 : en:Chapter 9
01:50:56.000 : en:Chapter 10
02:02:39.000 : en:Chapter 11
02:16:12.000 : en:Chapter 12

Скриншоты

Яндекс.Метрика
Рейтинг@Mail.ru