Taylor Swift - Blank Space [2014 г.] (Electropop, minimal pop) [WEB-DL, 1080p]

 

Создавать темы 17-Янв-2015 04:37

-Taylor Swift - Blank Space-- Год выпуска: 2014 г.
Страна: США
Жанр: Electropop, minimal pop
Режиссер: Joseph Kahn Кан / Joseph Kahn
Продолжительность: 00:04:32-Качество видео: WEB-DL
Контейнер: MP4
Стандарт разрешения: 1080p
Видео кодек: H.264
Аудио кодек: AAC
Видео: 1920x1080, 1800 Кбит/сек, 23,976 кадра/сек, 0.036 Бит/(Пиксели*Кадры)
Аудио: 254 Кбит/сек, 2 канала, 44,1 КГц-

Media Info

Общее
Полное имя                               : D:\movies\pirat.ca\clip\Taylor Swift - Blank Space.mp4
Формат                                   : MPEG-4
Профиль формата                          : Base Media
Идентификатор кодека                     : isom
Размер файла                             : 66,9 Мбайт
Продолжительность                        : 4 м. 32 с.
Общий поток                              : 2060 Кбит/сек
Программа кодирования                    : Lavf55.37.101
Видео
Идентификатор                            : 1
Формат                                   : AVC
Формат/Информация                        : Advanced Video Codec
Профиль формата                          : [email protected]
Параметр CABAC формата                   : Да
Параметр ReFrames формата                : 3 кадра
Идентификатор кодека                     : avc1
Идентификатор кодека/Информация          : Advanced Video Coding
Продолжительность                        : 4 м. 32 с.
Битрейт                                  : 1800 Кбит/сек
Ширина                                   : 1920 пикселей
Высота                                   : 1080 пикселей
Соотношение сторон                       : 16:9
Режим частоты кадров                     : Переменный
Частота кадров                           : 23,976 кадра/сек
Минимальная частота кадров               : 23,974 кадра/сек
Максимальная частота кадров              : 23,981 кадра/сек
Цветовое пространство                    : YUV
Субдискретизация насыщенности            : 4:2:0
Битовая глубина                          : 8 бит
Тип развёртки                            : Прогрессивная
Бит/(Пиксели*Кадры)                      : 0.036
Размер потока                            : 58,4 Мбайт (87%)
Аудио
Идентификатор                            : 2
Формат                                   : AAC
Формат/Информация                        : Advanced Audio Codec
Профиль формата                          : LC
Идентификатор кодека                     : 40
Продолжительность                        : 4 м. 32 с.
Вид битрейта                             : Постоянный
Битрейт                                  : 254 Кбит/сек
Каналы                                   : 2 канала
Расположение каналов                     : Front: L R
Частота                                  : 44,1 КГц
Метод сжатия                             : С потерями
Размер потока                            : 8,24 Мбайт (12%)

Скриншоты

Яндекс.Метрика
Рейтинг@Mail.ru