Восход «Черной луны» / Black Moon Rising (Харли Коклисс / Harley Cokeliss) [1986 г., фантастика, боевик, триллер, DVDRip-AVC] AVO (Е. Гаевский) + original (Eng) Sub (Eng)

 

Создавать темы 17-Янв-2015 04:34

Восход «Черной луны» / Black Moon Rising Год выпуска: 1986
Производство: США
Жанр: фантастика, боевик, триллер
Продолжительность: 01:39:40
Перевод: Авторский (одноголосый, закадровый) Е. Гаевский
Оригинальный аудиопоток: английский
Субтитры: английские
Режиссер: Харли Коклисс / Harley Cokeliss
В ролях: Томми Ли Джонс, Линда Хэмилтон, Роберт Вон, Ричард Джэкел, Ли Винг, Бубба Смит, Дэн Шор, Уильям Сэндерсон, Кинен Уинн, Ник Кассаветис
Описание: История, которая начинается с угона сверхмощного автомобиля с реактивным двигателем — «Черная луна», становится еще более запутанной, когда к разборкам между «специалистами» по незаконной транспортировке, гангстерами и агентами правительственных спецслужб подключается расследование, проводимое ФБР.
, КиноПоиск
Качество видео: DVDRip-AVC
Контейнер: MKV
Видео кодек: H.264
Аудио кодек: AC3
Видео: 720x384 (1.85:1); 2241 kbps; 23.976 fps; 0.338 Bit/Pixel
Аудио #1: 448 Kbps; 6 ch; 48.0 KHz - Гаевский
Аудио #2: 448 Kbps; 6 ch; 48.0 KHz - English

Media Info

General
Unique ID : 194884732015870578921208177201865682536 (0x929D6F21C9E8782A910862BF818DEE68)
Complete name : D:\Torrents\Black Moon Rising.1986.DVDRip-AVC.AVO.Gaevsky.mkv
Format : Matroska
Format version : Version 4 / Version 2
File size : 2.19 GiB
Duration : 1h 39mn
Overall bit rate : 3 138 Kbps
Encoded date : UTC 2015-01-15 11:23:52
Writing application : mkvmerge v7.3.0 ('Nouages') 64bit built on Oct 22 2014 18:53:34
Writing library : libebml v1.3.0 + libmatroska v1.4.1
_STATISTICS_WRITING_APP : mkvmerge v7.3.0 ('Nouages') 64bit built on Oct 22 2014 18:53:34
_STATISTICS_WRITING_DATE_UTC : 2015-01-15 11:23:52
_STATISTICS_TAGS : BPS DURATION NUMBER_OF_FRAMES NUMBER_OF_BYTES
DURATION : 01:39:40.928000000
NUMBER_OF_FRAMES : 186904
NUMBER_OF_BYTES : 334931968
Video
ID : 1
Format : AVC
Format/Info : Advanced Video Codec
Format profile : [email protected]
Format settings, CABAC : Yes
Format settings, ReFrames : 9 frames
Codec ID : V_MPEG4/ISO/AVC
Duration : 1h 39mn
Bit rate : 2 241 Kbps
Width : 720 pixels
Height : 384 pixels
Display aspect ratio : 1.85:1
Frame rate mode : Constant
Frame rate : 23.976 fps
Color space : YUV
Chroma subsampling : 4:2:0
Bit depth : 8 bits
Scan type : Progressive
Bits/(Pixel*Frame) : 0.338
Stream size : 1.52 GiB (69%)
Title : Rip by mihaildns
Writing library : x264 core 125 r2208 d9d2288
Encoding settings : cabac=1 / ref=9 / deblock=1:-3:-3 / analyse=0x3:0x111 / me=umh / subme=9 / psy=1 / psy_rd=1.00:0.00 / mixed_ref=1 / me_range=48 / chroma_me=1 / trellis=2 / 8x8dct=1 / cqm=0 / deadzone=21,11 / fast_pskip=0 / chroma_qp_offset=-2 / threads=3 / lookahead_threads=1 / sliced_threads=0 / nr=0 / decimate=1 / interlaced=0 / bluray_compat=0 / constrained_intra=0 / bframes=11 / b_pyramid=2 / b_adapt=2 / b_bias=0 / direct=3 / weightb=1 / open_gop=0 / weightp=2 / keyint=250 / keyint_min=23 / scenecut=40 / intra_refresh=0 / rc_lookahead=50 / rc=2pass / mbtree=1 / bitrate=2241 / ratetol=1.0 / qcomp=0.60 / qpmin=0 / qpmax=69 / qpstep=4 / cplxblur=20.0 / qblur=0.5 / ip_ratio=1.40 / aq=1:1.10
Language : English
Default : Yes
Forced : No
Audio #1
ID : 2
Format : AC-3
Format/Info : Audio Coding 3
Mode extension : CM (complete main)
Format settings, Endianness : Big
Codec ID : A_AC3
Duration : 1h 39mn
Bit rate mode : Constant
Bit rate : 448 Kbps
Channel(s) : 6 channels
Channel positions : Front: L C R, Side: L R, LFE
Sampling rate : 48.0 KHz
Bit depth : 16 bits
Compression mode : Lossy
Stream size : 319 MiB (14%)
Title : Гаевский
Language : Russian
Default : Yes
Forced : No
Audio #2
ID : 3
Format : AC-3
Format/Info : Audio Coding 3
Mode extension : CM (complete main)
Format settings, Endianness : Big
Codec ID : A_AC3
Duration : 1h 39mn
Bit rate mode : Constant
Bit rate : 448 Kbps
Channel(s) : 6 channels
Channel positions : Front: L C R, Side: L R, LFE
Sampling rate : 48.0 KHz
Bit depth : 16 bits
Compression mode : Lossy
Stream size : 319 MiB (14%)
Language : English
Default : No
Forced : No
Text
ID : 4
Format : UTF-8
Codec ID : S_TEXT/UTF8
Codec ID/Info : UTF-8 Plain Text
Language : English
Default : Yes
Forced : No

Скриншоты

Яндекс.Метрика
Рейтинг@Mail.ru