[ Сегодня на трекере фрилич! Идет свободное скачивание без начисления Download ]

Кадр / The Frame (Джеймин Винанс / Jamin Winans) [2014 г., Драма, Фантастика, WEB-Rip] DVO [DeadSno & den904] + Original (Eng)

 

Создавать темы 17-Янв-2015 04:28

-Кадр / The Frame--
Производство: США
Год выпуска: 2014 г.
Жанр: Драма, Фантастика
Продолжительность: 02:06:56
Мировая премьера: 17 октября 2014
Перевод: Любительский (двухголосый, закадровый) [DeadSno & den904]
Оригинальный аудиопоток: английский
Режиссер: Джеймин Винанс / Jamin Winans-В ролях:
Тифани Милам, Кэлвин Бартлетт, Крис Келли, Энтони Нуччио, Шона Эрп, Джордан Долл, Кент Рэнделл, Ивэн Лаи, Меган Хеффернан, Марти Линдси-Описание:
Двое незнакомцев проживают свои жизни в разных вселенных, но невероятным образом они сталкиваются. Алекс - преступник, работающий на опасный картель, и Сэм - фельдшер, пытающаяся спасти мир и убегающая от своего прошлого. Неожиданно для себя они становятся участниками реального шоу, наблюдая жизни друг друга по телевизору. Кто же Сценарист и Постановщик этого представления? И в чем его смысл?
-
Качество видео: WEB-Rip
Контейнер: AVI
Видео кодек: XviD
Аудио кодек: AC3
Видео: 720x384; 1149 kbps; 23,976 fps; 0.173 Bit/Pixel
Аудио #1: 192 kbps; 2 ch; 48.0 kHz
Аудио #2: 192 kbps; 2 ch; 48.0 kHz

Media Info

Формат : AVI
Формат/Информация : Audio Video Interleave
Размер файла : 1,37 Гбайт
Продолжительность : 2 ч. 6 м.
Общий поток : 1547 Кбит/сек
Программа кодирования : VirtualDubMod 1.5.10.2 (build 2540/release)
Библиотека кодирования : VirtualDubMod build 2540/release
Видео
Идентификатор : 0
Формат : MPEG-4 Visual
Профиль формата : Advanced [email protected]
Параметр BVOP формата : 2
Параметр QPel формата : Нет
Параметр GMC формата : Без точки перехода
Параметр матрицы формата : Default (MPEG)
Идентификатор кодека : XVID
Идентификатор кодека/Подсказка : XviD
Продолжительность : 2 ч. 6 м.
Битрейт : 1149 Кбит/сек
Ширина : 720 пикселей
Высота : 384 пикселя
Соотношение сторон : 1,85:1
Частота кадров : 23,976 кадра/сек
Цветовое пространство : YUV
Субдискретизация насыщенности : 4:2:0
Битовая глубина : 8 бит
Тип развёртки : Прогрессивная
Метод сжатия : С потерями
Бит/(Пиксели*Кадры) : 0.173
Размер потока : 1,02 Гбайт (74%)
Библиотека кодирования : XviD 1.2.1 (UTC 2008-12-04)
Аудио #1
Идентификатор : 1
Формат : AC-3
Формат/Информация : Audio Coding 3
Расширение режима : CM (complete main)
Параметр Endianness формата : Big
Идентификатор кодека : 2000
Продолжительность : 2 ч. 6 м.
Вид битрейта : Постоянный
Битрейт : 192 Кбит/сек
Каналы : 2 канала
Расположение каналов : Front: L R
Частота : 48,0 КГц
Битовая глубина : 16 бит
Метод сжатия : С потерями
Размер потока : 174 Мбайт (12%)
Выравнивание : Разделение по промежуткам
Продолжительность промежутка : 42 мс. (1,00 видеокадр)
Время предзагрузки промежутка : 500 мс.
Аудио #2
Идентификатор : 2
Формат : AC-3
Формат/Информация : Audio Coding 3
Расширение режима : CM (complete main)
Параметр Endianness формата : Big
Идентификатор кодека : 2000
Продолжительность : 2 ч. 6 м.
Вид битрейта : Постоянный
Битрейт : 192 Кбит/сек
Каналы : 2 канала
Расположение каналов : Front: L R
Частота : 48,0 КГц
Битовая глубина : 16 бит
Метод сжатия : С потерями
Размер потока : 174 Мбайт (12%)
Выравнивание : Разделение по промежуткам
Продолжительность промежутка : 42 мс. (1,00 видеокадр)
Время предзагрузки промежутка : 500 мс.
Яндекс.Метрика
Рейтинг@Mail.ru