Американская история ужасов / American Horror Story / Сезон 4 / Серии: 12 из 13 (Брэдли Букер / Bradley Buecker ...) [2014г., ужасы, фэнтези, триллер, драма, ..., WEB-DLRip] MVO (BaibaKo) + Original (Eng) [Обновляемая]

 

Создавать темы 17-Янв-2015 04:19

Американская история ужасов
American Horror Story

«Get committed»
- Русское название: Американская история ужасов
Оригинальное название: American Horror Story
Производство: США
Год выпуска: 2014
Жанр: ужасы, фантастика, триллер, драма, детектив, ...-Премьера (мир): 5 октября 2011, ...
Премьера (РФ): 6 июня 2013-Релиз:
Перевод: Профессиональный (многоголосый, закадровый)
Оригинальный аудиопоток: английский-Над релизом работали:
Автор перевода: vipere
Озвучка: Лира Грим, Татьяна Оболевич, Артемий Мирон и Акмал Гурезов
Монтаж: Виталий Мартыняк
Обложка: Антон Максимов-Режиссер: Брэдли Букер / Bradley Buecker, Альфонсо Гомез-Рейон / Alfonso Gomez-Rejon, Майкл Аппендаль / Michael Uppendahl ...
В главных ролях: Эван Питерс, Джессика Лэнг, Лили Рэйб, Фрэнсис Конрой, Сара Полсон, Таисса Фармига, Дэнис О`Харе, Закари Куинто, Дилан МакДермотт, Джэми Брюэр, Кэти Бэйтс, Джозеф Файнс, Лиззи Брошере, Эмма Робертс, Джеймс Кромуэлл, Конни Бриттон, Анджела Бассетт, Габури Сидибе, Кейт Мара ...-Описание фильма:
Полное собрание национальных кошмаров. Мы уже видели дом с привидениями, больницу для душевнобольных преступников и ведьмовский шабаш. Настал черед цирка уродов. Флорида, 1950-е. Управляющая последним паноптикумом в стране собирается закрыть свое шоу. Но артисты-фрики не рады досрочной пенсии. Они сделают что угодно, чтобы жуткий цирк продолжал существовать.-Сезон: 4
Серии: 12 из 13 серий
Продолжительность: ~ 01:00:00 мин серия-Качество видео: WEB-DLRip
Формат: AVI
Видеокодек: XviD
Аудиокодек: Mp3
Видео: MPEG-4 Visual at 1500 Кбит/сек: 720 x 400 (1.800) at 23.976 fps, 0.22 Бит/Пиксели
Аудио Rus: MPEG Audio at 192 Кбит/сек: 2 канала, 48,0 КГц |BaibaKo|
Аудио Eng: MPEG Audio at 192 Кбит/сек: 2 канала, 48,0 КГц |Original|
- -

Список серий:

  • Монстры среди нас (Monsters Among Us)
  • Представление днём, резня вечером (Massacres and Matinees)
  • Эдвард Мордрейк. Часть 1 (Edward Mordrake: Part 1)
  • Эдвард Мордрейк. Часть 2 (Edward Mordrake: Part 2)
  • Розовые капкейки (Pink Cupcakes)
  • Меченый (Bullseye)
  • Проверка сил (Test of Strength)
  • Кровавая баня (Blood Bath)
  • Резня на вечеринке с пластиковой посудой (Tupperware Party Massacre)
  • Сироты (Orphans)
  • Магическое мышление (Magical Thinking)
  • Умереть - не встать! (Show Stoppers)
-

MediaInfo:

Общее
Полное имя : E:\_Сериалы\_Сериалы\Американская История ужасов\American Horror Story.s04.BaibaKo\American.Horror.Story.s04e01.WEB-DLRip.XviD.Rus.Eng.BaibaKo.tv.avi
Формат : AVI
Формат/Информация : Audio Video Interleave
Размер файла : 883 Мбайт
Продолжительность : 1 ч. 5 м.
Общий поток : 1898 Кбит/сек
Программа кодирования : VirtualDubMod 1.5.10.2 (build 2540/release)
Библиотека кодирования : VirtualDubMod build 2540/release
Видео
Идентификатор : 0
Формат : MPEG-4 Visual
Профиль формата : Advanced [email protected]
Параметр BVOP формата : 2
Параметр QPel формата : Нет
Параметр GMC формата : Без точки перехода
Параметр матрицы формата : Default (H.263)
Идентификатор кодека : XVID
Идентификатор кодека/Подсказка : XviD
Продолжительность : 1 ч. 5 м.
Битрейт : 1500 Кбит/сек
Ширина : 720 пикселей
Высота : 400 пикселей
Соотношение сторон : 16:9
Частота кадров : 23,976 кадра/сек
Цветовое пространство : YUV
Субдискретизация насыщенности : 4:2:0
Битовая глубина : 8 бит
Тип развёртки : Прогрессивная
Метод сжатия : С потерями
Бит/(Пиксели*Кадры) : 0.217
Размер потока : 698 Мбайт (79%)
Библиотека кодирования : XviD 1.2.1 (UTC 2008-12-04)
Аудио #1
Идентификатор : 1
Формат : MPEG Audio
Версия формата : Version 1
Профиль формата : Layer 3
Режим : Joint stereo
Идентификатор кодека : 55
Идентификатор кодека/Подсказка : MP3
Продолжительность : 1 ч. 5 м.
Вид битрейта : Постоянный
Битрейт : 192 Кбит/сек
Каналы : 2 канала
Частота : 48,0 КГц
Метод сжатия : С потерями
Размер потока : 89,3 Мбайт (10%)
Выравнивание : Соединение по промежуткам
Продолжительность промежутка : 42 мс. (1,00 видеокадр)
Время предзагрузки промежутка : 504 мс.
Аудио #2
Идентификатор : 2
Формат : MPEG Audio
Версия формата : Version 1
Профиль формата : Layer 3
Режим : Joint stereo
Расширение режима : MS Stereo
Идентификатор кодека : 55
Идентификатор кодека/Подсказка : MP3
Продолжительность : 1 ч. 5 м.
Вид битрейта : Постоянный
Битрейт : 192 Кбит/сек
Каналы : 2 канала
Частота : 48,0 КГц
Метод сжатия : С потерями
Размер потока : 89,3 Мбайт (10%)
Выравнивание : Соединение по промежуткам
Продолжительность промежутка : 42 мс. (1,00 видеокадр)
Время предзагрузки промежутка : 504 мс.
-

Скриншот c названием фильма

-Скриншоты:
-

Еще

-

Внимание! Раздача ведётся путём добавления новых серий!

Раздача ведётся путём добавления новых серий; при каждом добавлении создётся новый торрент.
Чтобы начать докачку новой серии, пользователям необходимо сделать следующее:
1. остановить скачивание,
2. удалить старый торрент у себя из клиента (старые серии удалять не надо),
3. скачать новый торрент и запустить его у себя в клиенте вместо старого, при этом указать клиенту путь в старую папку, куда и должно происходить скачивание новых серий.
Ваш клиент при этом должен произвести хеширование (проверку) старой папки (если не производит сам - помогите ему сделать это), и будет докачивать только те серии которых у вас ещё нет. Старые серии при этом не удаляются, а продолжают раздаваться!
Eсли вы уже удалили старые серии, то предотвратить повторную закачку старых серий можно, отжав галочку в соответсвующих местах при запуске нового торрента. По возможности, желательно не удалять старые серии как можно дольше, чтобы релизёр не столько продолжал раздавать старые серии, а смог сконцентрироваться на новых.
Совет для тех, кто не хочет ждать перехеширования:
Создайте ещё одну папку рядом с папкой сериала (рядом, а не в ней!!!). Каждую новую серию после удачной загрузки копируйте в новую папку так чтобы ваша основная папка всегда была пуста. Когда ваш новый торрент предложит вам закачать все файлы, выберете только последнюю. Для сидирования же укажите адрес новой папки.
Как закачать отдельный файл из торрента или докачать ранее пропущенные файлы торрента!
-

Как закачать отдельный файл

1. Открыть торрент
2. Снять галки с тех файлов торрента, которые мы не хотим закачивать. Оставляем только на нужных нам файлах (файле).
3. Нажать О.К.
В клиенте utorrent
Инструкция
1) Открыть торрент

2) Снять галки с тех файлов торрента, которые мы не хотим закачивать:
* либо вручную, снимая с каждого файла галку( скрин №1)
* либо, нажав кнопку "Снять метки (Select None)", сняв сразу со всех файлов(скрин №2)
№1

№2

Оставляем только на нужных нам файлах (файле).

3)Нажать О.К
-Добавлена двенадцатая серия четвертого сезона
Яндекс.Метрика
Рейтинг@Mail.ru