[ Сегодня на трекере фрилич! Идет свободное скачивание без начисления Download ]

Игрок / The Gambler (Руперт Уайатт / Rupert Wyatt) [2014 г., Триллер, Драма, Криминал, DVDScreener] DVO [R.A.I.M & GUGU]

 

Создавать темы 17-Янв-2015 03:42

-Игрок / The Gambler--«Ставок больше нет»-- Производство: США | Paramount Pictures, Winkler Films
Год выпуска: 2014 г.
Жанр: драма, криминал
Продолжительность: 01:50:59
Мировая премьера: 10 ноября 2014
Российская премьера: 22 января 2015, «Централ Партнершип»
Дата выхода DVD: 1 июня 2015, «Новый Диск»
Дата выхода Blu-Ray: 1 июня 2015, «Новый Диск»
Перевод: Любительский (двухголосый, закадровый) [R.A.I.M & GUGU]
Режиссер: Руперт Уайатт / Rupert Wyatt-В ролях: Марк Уолберг, Джон Гудман, Бри Ларсон, Майкл Кеннет Уильямс, Джессика Лэнг, Гриффин Кливлэнд, Омар Лейва, Энтони Келли, Стив Парк, Эмори Коэн-Описание: Джим Беннетт — рисковый парень. Днем он — гениальный писатель и отличный преподаватель, ночью — заядлый игрок. Он глубоко увяз в мире, где закон — пустой звук, и однажды ставит на кон все, включая собственную жизнь. Те, кому он должен, опасны, а помочь ему может только тот, кто еще опаснее.
Достоин ли второго шанса человек, проигравший самого себя? А, если да, то — во сколько это ему обойдется?-
Качество видео: DVDScreener
Контейнер: AVI
Видео кодек: XviD
Аудио кодек: AC3
Видео: 704x304, 1626 Кбит/сек, 23,976 кадра/сек, 0.317 Бит/(Пиксели*Кадры)
Аудио: 128 Кбит/сек, 2 канала, 48,0 КГц
Cубтитры: отсутствуют

Знаете ли вы, что...

  • Ради съемок в фильме Марк Уолберг похудел на 25 килограммов.

Media Info

Общее
Полное имя                               : D:\movies\pirat.ca\1gP0K.2O14.L2.DVDScr.1400MB.avi
Формат                                   : AVI
Формат/Информация                        : Audio Video Interleave
Размер файла                             : 1,37 Гбайт
Продолжительность                        : 1 ч. 50 м.
Общий поток                              : 1763 Кбит/сек
Программа кодирования                    : VirtualDubMod 1.5.10.2 (build 2540/release)
Библиотека кодирования                   : VirtualDubMod build 2540/release
Видео
Идентификатор                            : 0
Формат                                   : MPEG-4 Visual
Профиль формата                          : Advanced [email protected]
Параметр BVOP формата                    : 2
Параметр QPel формата                    : Нет
Параметр GMC формата                     : Без точки перехода
Параметр матрицы формата                 : Default (MPEG)
Идентификатор кодека                     : XVID
Идентификатор кодека/Подсказка           : XviD
Продолжительность                        : 1 ч. 50 м.
Битрейт                                  : 1626 Кбит/сек
Ширина                                   : 704 пикселя
Высота                                   : 304 пикселя
Соотношение сторон                       : 2,35:1
Частота кадров                           : 23,976 кадра/сек
Цветовое пространство                    : YUV
Субдискретизация насыщенности            : 4:2:0
Битовая глубина                          : 8 бит
Тип развёртки                            : Прогрессивная
Метод сжатия                             : С потерями
Бит/(Пиксели*Кадры)                      : 0.317
Размер потока                            : 1,26 Гбайт (92%)
Библиотека кодирования                   : XviD 1.2.1 (UTC 2008-12-04)
Аудио
Идентификатор                            : 1
Формат                                   : AC-3
Формат/Информация                        : Audio Coding 3
Расширение режима                        : CM (complete main)
Параметр Endianness формата              : Big
Идентификатор кодека                     : 2000
Продолжительность                        : 1 ч. 50 м.
Вид битрейта                             : Постоянный
Битрейт                                  : 128 Кбит/сек
Каналы                                   : 2 канала
Расположение каналов                     : Front: L R
Частота                                  : 48,0 КГц
Битовая глубина                          : 16 бит
Метод сжатия                             : С потерями
Размер потока                            : 102 Мбайт (7%)
Выравнивание                             : Разделение по промежуткам
Продолжительность промежутка             : 42  мс. (1,00 видеокадр)
Время предзагрузки промежутка            : 500  мс.

Скриншоты

Яндекс.Метрика
Рейтинг@Mail.ru