Джек-попрыгун / Jumpin' Jack Flash (Пенни Маршалл / Penny Marshall) [1986 г., комедия, триллер, мелодрама, DVDRip] MVO + Original (Eng)

 

Создавать темы 17-Янв-2015 03:39

Джек-попрыгун / Jumpin' Jack Flash- Год выпуска: 1986 г.
Производство: США , 20th Century Fox, Silver Pictures, Lawrence Gordon Productions
Жанр: комедия, триллер, мелодрама
Продолжительность: 01:41:00
Мировая премьера: 10 октября 1986
Дата выхода DVD: 23 июля 2009, «Двадцатый Век Фокс СНГ»
Перевод: Профессиональный (многоголосый, закадровый)
Оригинальный аудиопоток: английский
Режиссёр: Пенни Маршалл / Penny Marshall-В ролях: Вупи Голдберг, Стивен Коллинз, Джон Вуд, Кэрол Кейн, Энни Поттс, Питер Майкл Гец, Роско Ли Браун, Сара Ботсфорд, Ерун Краббе, Вито Руджинис-Описание: Терри работает программисткой в банке. Эта скучная и нудная работа абсолютно не подходит темпераменту весёлой чернокожей грубиянке. Но всё меняется, когда она получает таинственное закодированное послание. Расшифровав его, Терри оказывается втянута в запутанную и очень опасную шпионскую игру.
-*5.7 *7.2Качество видео: DVDRip
Контейнер: AVI
Видео кодек: XviD
Аудио кодек: AC3
Видео: 704x384 (1.85:1), 2186 kbps, 25 fps, 0.323 bit/pixel
Аудио #1: Rus: 448 kbps, 6 ch, 48.0 kHz
Аудио #2: Eng: 448 kbps, 6 ch, 48.0 kHz
Cубтитры: отсутствуют

Media Info

Общее
Полное имя : Джек-попрыгун_ Jumpin' Jack Flash.1986.[DVDRip].avi
Формат : AVI
Формат/Информация : Audio Video Interleave
Размер файла : 2,19 Гбайт
Продолжительность : 1 ч. 41 м.
Общий поток : 3099 Кбит/сек
Видео
Идентификатор : 0
Формат : MPEG-4 Visual
Профиль формата : [email protected]
Параметр BVOP формата : Нет
Параметр QPel формата : Нет
Параметр GMC формата : Без точки перехода
Параметр матрицы формата : Default (H.263)
Идентификатор кодека : XVID
Идентификатор кодека/Подсказка : XviD
Продолжительность : 1 ч. 41 м.
Продолжительность оригинала : 1 ч. 41 м.
Битрейт : 2186 Кбит/сек
Ширина : 704 пикселя
Высота : 384 пикселя
Соотношение сторон : 1,85:1
Частота кадров : 25,000 кадров/сек
Цветовое пространство : YUV
Субдискретизация насыщенности : 4:2:0
Битовая глубина : 8 бит
Тип развёртки : Прогрессивная
Метод сжатия : С потерями
Бит/(Пиксели*Кадры) : 0.323
Размер потока : 1,54 Гбайт (71%)
Библиотека кодирования : XviD 1.1.2 (UTC 2006-11-01)
Аудио #1
Идентификатор : 1
Формат : AC-3
Формат/Информация : Audio Coding 3
Расширение режима : CM (complete main)
Параметр Endianness формата : Big
Идентификатор кодека : 2000
Продолжительность : 1 ч. 41 м.
Вид битрейта : Постоянный
Битрейт : 448 Кбит/сек
Каналы : 6 каналов
Расположение каналов : Front: L C R, Side: L R, LFE
Частота : 48,0 КГц
Битовая глубина : 16 бит
Метод сжатия : С потерями
Размер потока : 324 Мбайт (14%)
Выравнивание : Соединение по промежуткам
Продолжительность промежутка : 32 мс. (0,80 видеокадр)
Аудио #2
Идентификатор : 2
Формат : AC-3
Формат/Информация : Audio Coding 3
Расширение режима : CM (complete main)
Параметр Endianness формата : Big
Идентификатор кодека : 2000
Продолжительность : 1 ч. 41 м.
Вид битрейта : Постоянный
Битрейт : 448 Кбит/сек
Каналы : 6 каналов
Расположение каналов : Front: L C R, Side: L R, LFE
Частота : 48,0 КГц
Битовая глубина : 16 бит
Метод сжатия : С потерями
Размер потока : 324 Мбайт (14%)
Выравнивание : Соединение по промежуткам
Продолжительность промежутка : 32 мс. (0,80 видеокадр)
Яндекс.Метрика
Рейтинг@Mail.ru