[ Сегодня на трекере фрилич! Идет свободное скачивание без начисления Download ]

(Rock, Hard Rock) The Original Rock Meets Classic [2 CD] - 2014 [FLAC, tracks+.cue, lossless]

 

Создавать темы 17-Янв-2015 03:32

-The Original Rock Meets Classic [2 CD]-- Год издания: 2014
Страна: Germany
Жанр: Rock, Hard Rock
Продолжительность: 02:41:20-Лейбл издания: Sony Music Entertainment Germany GmbH
Номер по каталогу: 888750251923
Формат: FLAC
Битрейт аудио: lossless
Тип рипа: tracks+.cue
Наличие сканов в содержимом раздачи: нет-

Трэклист

CD1:
01. Queen - The Show Must Go On (4:38)
02. Deep Purple - Smoke on the Water (5:41)
03. Alice Cooper - Poison (4:31)
04. Status Quo - Whatever You Want (4:03)
05. Free - All Right Now (4:15)
06. Manfred Mann's Earth Band - For You (5:43)
07. Foreigner - Juke Box Hero (4:23)
08. Uriah Heep - Lady in Black (4:49)
09. Toto - Rosanna (4:04)
10. Rainbow - Since You Been Gone (3:18)
11. Bonnie Tyler - Total-Eclipse of the Heart (4:29)
12. The Hooters - Johnny B. (4:00)
13. Survivor - Burning Heart (3:52)
14. Bad Company - Feel Like Makin' Love (5:12)
15. Journey - Don't Stop Believin' (4:11)
16. Mat Sinner - Until It Hurts (3:39)
17. Mr. Big - To be With You (3:29)
18. Nazareth - Love Hurts (Rock Orchestra version) (4:07)
19. Andrew Davis IV. in the Hall of The Mountain King (in der halle des bergkoenigs) - Alla marcia e molto mar (2:26)
Продoлжитeльность: 01:20:50
CD2
Трeклиcт:
Треклист:CD2:
01. Toto - Child's Anthem (2:48)
02. Asia - Heat of the Moment (3:51)
03. Survivor - Eye of the Tiger (4:07)
04. Status Quo - In the Army Now (4:41)
05. Uriah Heep - Easy Livin' (2:38)
06. Manfred Mann's Earth Band - Davy's on the Road Again (3:40)
07. Barclay James Harvest - Life Is for Living (3:40)
08. Mr. Big - Just Take my Heart (3:48)
09. Europe - The Final Countdown (4:00)
10. Nazareth - Dream On (3:28)
11. Bonnie Tyler - Holding Out for a Hero (4:25)
12. Journey - Faithfully (4:28)
13. Heart - Alone (3:40)
14. Primal Fear & Mat Sinners - Fighting the Darkness (3:41)
15. Kim Wilde - Kids in America (3:27)
16. Chris Thompson - You're the Voice (4:10)
17. Ultravox - Vienna (4:40)
18. Berliner Sinfonie Orchester / Dir.: Guenther Herbig - Bolero (15:18)
Продoлжитeльность: 01:20:30

Лог создания рипа

CD1
Exact Audio Copy V1.0 beta 3 from 29. August 2011
EAC extraction logfile from 12. January 2015, 18:57
Various Artists / The Original Rock Meets Classic [CD1]
Used drive  : hp      DVD ROM 465d   Adapter: 2  ID: 0
Read mode               : Secure
Utilize accurate stream : Yes
Defeat audio cache      : Yes
Make use of C2 pointers : No
Read offset correction                      : 6
Overread into Lead-In and Lead-Out          : No
Fill up missing offset samples with silence : Yes
Delete leading and trailing silent blocks   : No
Null samples used in CRC calculations       : Yes
Used interface                              : Native Win32 interface for Win NT & 2000
Gap handling                                : Appended to previous track
Used output format              : User Defined Encoder
Selected bitrate                : 1024 kBit/s
Quality                         : High
Add ID3 tag                     : No
Command line compressor         : C:\Program Files (x86)\Kodeki za Glasbo\FLAC\flac.exe
Additional command line options : -8 -V -T "artist=%artist%" -T "title=%title%" -T "album=%albumtitle%" -T "date=%year%" -T "tracknumber=%tracknr%" -T "genre=%genre%" -5 %source%
TOC of the extracted CD
Track |   Start  |  Length  | Start sector | End sector
---------------------------------------------------------
1  |  0:00.00 |  4:37.50 |         0    |    20824
2  |  4:37.50 |  5:41.05 |     20825    |    46404
3  | 10:18.55 |  4:31.33 |     46405    |    66762
4  | 14:50.13 |  4:02.57 |     66763    |    84969
5  | 18:52.70 |  4:14.58 |     84970    |   104077
6  | 23:07.53 |  5:42.72 |    104078    |   129799
7  | 28:50.50 |  4:23.00 |    129800    |   149524
8  | 33:13.50 |  4:48.50 |    149525    |   171174
9  | 38:02.25 |  4:03.67 |    171175    |   189466
10  | 42:06.17 |  3:17.69 |    189467    |   204310
11  | 45:24.11 |  4:29.29 |    204311    |   224514
12  | 49:53.40 |  3:59.59 |    224515    |   242498
13  | 53:53.24 |  3:51.42 |    242499    |   259865
14  | 57:44.66 |  5:12.27 |    259866    |   283292
15  | 62:57.18 |  4:11.18 |    283293    |   302135
16  | 67:08.36 |  3:39.25 |    302136    |   318585
17  | 70:47.61 |  3:28.60 |    318586    |   334245
18  | 74:16.46 |  4:07.36 |    334246    |   352806
19  | 78:24.07 |  2:26.16 |    352807    |   363772
Track  1
Filename M:\3. in preparation\VA - The Original Rock Meets Classic-2CD-FLAC-2014 {Sony Music Entertainment Germany GmbH. - 888750251923}\CD-1\01. Queen - The Show Must Go On.wav
Pre-gap length  0:00:02.00
Peak level 98.4 %
Extraction speed 59.9 X
Track quality 100.0 %
Test CRC 10D45A15
Copy CRC 10D45A15
Track not present in AccurateRip database
Copy OK
Track  2
Filename M:\3. in preparation\VA - The Original Rock Meets Classic-2CD-FLAC-2014 {Sony Music Entertainment Germany GmbH. - 888750251923}\CD-1\02. Deep Purple - Smoke on the Water.wav
Pre-gap length  0:00:02.00
Peak level 93.4 %
Extraction speed 69.4 X
Track quality 100.0 %
Test CRC 0EB0CE5C
Copy CRC 0EB0CE5C
Track not present in AccurateRip database
Copy OK
Track  3
Filename M:\3. in preparation\VA - The Original Rock Meets Classic-2CD-FLAC-2014 {Sony Music Entertainment Germany GmbH. - 888750251923}\CD-1\03. Alice Cooper - Poison.wav
Pre-gap length  0:00:02.00
Peak level 99.0 %
Extraction speed 59.0 X
Track quality 100.0 %
Test CRC 9B8FC70C
Copy CRC 9B8FC70C
Track not present in AccurateRip database
Copy OK
Track  4
Filename M:\3. in preparation\VA - The Original Rock Meets Classic-2CD-FLAC-2014 {Sony Music Entertainment Germany GmbH. - 888750251923}\CD-1\04. Status Quo - Whatever You Want.wav
Pre-gap length  0:00:02.00
Peak level 99.0 %
Extraction speed 70.6 X
Track quality 100.0 %
Test CRC 711C2797
Copy CRC 711C2797
Track not present in AccurateRip database
Copy OK
Track  5
Filename M:\3. in preparation\VA - The Original Rock Meets Classic-2CD-FLAC-2014 {Sony Music Entertainment Germany GmbH. - 888750251923}\CD-1\05. Free - All Right Now.wav
Pre-gap length  0:00:02.00
Peak level 93.6 %
Extraction speed 61.5 X
Track quality 100.0 %
Test CRC 5C377B37
Copy CRC 5C377B37
Track not present in AccurateRip database
Copy OK
Track  6
Filename M:\3. in preparation\VA - The Original Rock Meets Classic-2CD-FLAC-2014 {Sony Music Entertainment Germany GmbH. - 888750251923}\CD-1\06. Manfred Mann's Earth Band - For You.wav
Pre-gap length  0:00:02.00
Peak level 99.0 %
Extraction speed 69.8 X
Track quality 99.9 %
Test CRC 5B442F71
Copy CRC 5B442F71
Track not present in AccurateRip database
Copy OK
Track  7
Filename M:\3. in preparation\VA - The Original Rock Meets Classic-2CD-FLAC-2014 {Sony Music Entertainment Germany GmbH. - 888750251923}\CD-1\07. Foreigner - Juke Box Hero.wav
Pre-gap length  0:00:02.00
Peak level 93.5 %
Extraction speed 62.1 X
Track quality 100.0 %
Test CRC D7CD531F
Copy CRC D7CD531F
Track not present in AccurateRip database
Copy OK
Track  8
Filename M:\3. in preparation\VA - The Original Rock Meets Classic-2CD-FLAC-2014 {Sony Music Entertainment Germany GmbH. - 888750251923}\CD-1\08. Uriah Heep - Lady in Black.wav
Pre-gap length  0:00:02.00
Peak level 99.0 %
Extraction speed 64.5 X
Track quality 100.0 %
Test CRC 2E90EE60
Copy CRC 2E90EE60
Track not present in AccurateRip database
Copy OK
Track  9
Filename M:\3. in preparation\VA - The Original Rock Meets Classic-2CD-FLAC-2014 {Sony Music Entertainment Germany GmbH. - 888750251923}\CD-1\09. Toto - Rosanna.wav
Pre-gap length  0:00:02.00
Peak level 99.0 %
Extraction speed 59.9 X
Track quality 100.0 %
Test CRC C865196E
Copy CRC C865196E
Track not present in AccurateRip database
Copy OK
Track 10
Filename M:\3. in preparation\VA - The Original Rock Meets Classic-2CD-FLAC-2014 {Sony Music Entertainment Germany GmbH. - 888750251923}\CD-1\10. Rainbow - Since You Been Gone.wav
Pre-gap length  0:00:02.00
Peak level 99.0 %
Extraction speed 70.3 X
Track quality 100.0 %
Test CRC 006827CA
Copy CRC 006827CA
Track not present in AccurateRip database
Copy OK
Track 11
Filename M:\3. in preparation\VA - The Original Rock Meets Classic-2CD-FLAC-2014 {Sony Music Entertainment Germany GmbH. - 888750251923}\CD-1\11. Bonnie Tyler - Total-Eclipse of the Heart.wav
Pre-gap length  0:00:02.00
Peak level 95.7 %
Extraction speed 60.7 X
Track quality 100.0 %
Test CRC 2CB1ADA1
Copy CRC 2CB1ADA1
Track not present in AccurateRip database
Copy OK
Track 12
Filename M:\3. in preparation\VA - The Original Rock Meets Classic-2CD-FLAC-2014 {Sony Music Entertainment Germany GmbH. - 888750251923}\CD-1\12. The Hooters - Johnny B..wav
Pre-gap length  0:00:02.00
Peak level 99.0 %
Extraction speed 59.9 X
Track quality 100.0 %
Test CRC 8E60E93D
Copy CRC 8E60E93D
Track not present in AccurateRip database
Copy OK
Track 13
Filename M:\3. in preparation\VA - The Original Rock Meets Classic-2CD-FLAC-2014 {Sony Music Entertainment Germany GmbH. - 888750251923}\CD-1\13. Survivor - Burning Heart.wav
Pre-gap length  0:00:02.00
Peak level 91.4 %
Extraction speed 65.8 X
Track quality 100.0 %
Test CRC 074B0F50
Copy CRC 074B0F50
Track not present in AccurateRip database
Copy OK
Track 14
Filename M:\3. in preparation\VA - The Original Rock Meets Classic-2CD-FLAC-2014 {Sony Music Entertainment Germany GmbH. - 888750251923}\CD-1\14. Bad Company - Feel Like Makin' Love.wav
Pre-gap length  0:00:02.00
Peak level 99.0 %
Extraction speed 61.5 X
Track quality 100.0 %
Test CRC 8CF50387
Copy CRC 8CF50387
Track not present in AccurateRip database
Copy OK
Track 15
Filename M:\3. in preparation\VA - The Original Rock Meets Classic-2CD-FLAC-2014 {Sony Music Entertainment Germany GmbH. - 888750251923}\CD-1\15. Journey - Don't Stop Believin'.wav
Pre-gap length  0:00:02.00
Peak level 94.4 %
Extraction speed 70.2 X
Track quality 100.0 %
Test CRC 1F2C043B
Copy CRC 1F2C043B
Track not present in AccurateRip database
Copy OK
Track 16
Filename M:\3. in preparation\VA - The Original Rock Meets Classic-2CD-FLAC-2014 {Sony Music Entertainment Germany GmbH. - 888750251923}\CD-1\16. Mat Sinner - Until It Hurts.wav
Pre-gap length  0:00:02.00
Peak level 88.0 %
Extraction speed 66.0 X
Track quality 100.0 %
Test CRC EE5E0D0F
Copy CRC EE5E0D0F
Track not present in AccurateRip database
Copy OK
Track 17
Filename M:\3. in preparation\VA - The Original Rock Meets Classic-2CD-FLAC-2014 {Sony Music Entertainment Germany GmbH. - 888750251923}\CD-1\17. Mr. Big - To be With You.wav
Pre-gap length  0:00:02.00
Peak level 93.5 %
Extraction speed 64.8 X
Track quality 99.9 %
Test CRC 4114AA27
Copy CRC 4114AA27
Track not present in AccurateRip database
Copy OK
Track 18
Filename M:\3. in preparation\VA - The Original Rock Meets Classic-2CD-FLAC-2014 {Sony Music Entertainment Germany GmbH. - 888750251923}\CD-1\18. Nazareth - Love Hurts (Rock Orchestra version).wav
Pre-gap length  0:00:02.00
Peak level 99.0 %
Extraction speed 72.6 X
Track quality 100.0 %
Test CRC 378382C2
Copy CRC 378382C2
Track not present in AccurateRip database
Copy OK
Track 19
Filename M:\3. in preparation\VA - The Original Rock Meets Classic-2CD-FLAC-2014 {Sony Music Entertainment Germany GmbH. - 888750251923}\CD-1\19. Andrew Davis IV. in the Hall of The Mountain King (in der halle des bergkoenigs) - Alla marcia e molto mar
Pre-gap length  0:00:02.00
Peak level 99.0 %
Extraction speed 67.4 X
Track quality 100.0 %
Test CRC 241BED8E
Copy CRC 241BED8E
Track not present in AccurateRip database
Copy OK
None of the tracks are present in the AccurateRip database
No errors occurred
End of status report
---- CUETools DB Plugin V2.1.4
[CTDB TOCID: x9fL_SOIC2QcE4pqaJDIka9LqQk-] disk not present in database
Submit result: x9fL_SOIC2QcE4pqaJDIka9LqQk- has been uploaded
==== Log checksum 6B2D5E7040F7C631991A6857C1C43E0A7AA945B79D48BFC99A2F02D80175ACCF ====
CD2
Exact Audio Copy V1.0 beta 3 from 29. August 2011
EAC extraction logfile from 12. January 2015, 19:07
Various Artists / The Original Rock Meets Classic [CD2]
Used drive  : hp      DVD ROM 465d   Adapter: 2  ID: 0
Read mode               : Secure
Utilize accurate stream : Yes
Defeat audio cache      : Yes
Make use of C2 pointers : No
Read offset correction                      : 6
Overread into Lead-In and Lead-Out          : No
Fill up missing offset samples with silence : Yes
Delete leading and trailing silent blocks   : No
Null samples used in CRC calculations       : Yes
Used interface                              : Native Win32 interface for Win NT & 2000
Gap handling                                : Appended to previous track
Used output format              : User Defined Encoder
Selected bitrate                : 1024 kBit/s
Quality                         : High
Add ID3 tag                     : No
Command line compressor         : C:\Program Files (x86)\Kodeki za Glasbo\FLAC\flac.exe
Additional command line options : -8 -V -T "artist=%artist%" -T "title=%title%" -T "album=%albumtitle%" -T "date=%year%" -T "tracknumber=%tracknr%" -T "genre=%genre%" -5 %source%
TOC of the extracted CD
Track |   Start  |  Length  | Start sector | End sector
---------------------------------------------------------
1  |  0:00.00 |  2:48.33 |         0    |    12632
2  |  2:48.33 |  3:51.24 |     12633    |    29981
3  |  6:39.57 |  4:07.29 |     29982    |    48535
4  | 10:47.11 |  4:40.56 |     48536    |    69591
5  | 15:27.67 |  2:37.45 |     69592    |    81411
6  | 18:05.37 |  3:39.41 |     81412    |    97877
7  | 21:45.03 |  3:39.69 |     97878    |   114371
8  | 25:24.72 |  3:48.05 |    114372    |   131476
9  | 29:13.02 |  4:00.06 |    131477    |   149482
10  | 33:13.08 |  3:27.39 |    149483    |   165046
11  | 36:40.47 |  4:24.48 |    165047    |   184894
12  | 41:05.20 |  4:27.48 |    184895    |   204967
13  | 45:32.68 |  3:40.16 |    204968    |   221483
14  | 49:13.09 |  3:41.27 |    221484    |   238085
15  | 52:54.36 |  3:27.06 |    238086    |   253616
16  | 56:21.42 |  4:10.27 |    253617    |   272393
17  | 60:31.69 |  4:40.19 |    272394    |   293412
18  | 65:12.13 | 15:17.65 |    293413    |   362252
Track  1
Filename M:\3. in preparation\VA - The Original Rock Meets Classic-2CD-FLAC-2014 {Sony Music Entertainment Germany GmbH. - 888750251923}\CD-2\01. Toto - Child's Anthem.wav
Pre-gap length  0:00:02.00
Peak level 99.0 %
Extraction speed 52.3 X
Track quality 100.0 %
Test CRC 59E82F35
Copy CRC 59E82F35
Track not present in AccurateRip database
Copy OK
Track  2
Filename M:\3. in preparation\VA - The Original Rock Meets Classic-2CD-FLAC-2014 {Sony Music Entertainment Germany GmbH. - 888750251923}\CD-2\02. Asia - Heat of the Moment.wav
Pre-gap length  0:00:02.00
Peak level 99.1 %
Extraction speed 71.9 X
Track quality 100.0 %
Test CRC A15EF9B3
Copy CRC A15EF9B3
Track not present in AccurateRip database
Copy OK
Track  3
Filename M:\3. in preparation\VA - The Original Rock Meets Classic-2CD-FLAC-2014 {Sony Music Entertainment Germany GmbH. - 888750251923}\CD-2\03. Survivor - Eye of the Tiger.wav
Pre-gap length  0:00:02.00
Peak level 99.4 %
Extraction speed 61.5 X
Track quality 100.0 %
Test CRC 444ED8F9
Copy CRC 444ED8F9
Track not present in AccurateRip database
Copy OK
Track  4
Filename M:\3. in preparation\VA - The Original Rock Meets Classic-2CD-FLAC-2014 {Sony Music Entertainment Germany GmbH. - 888750251923}\CD-2\04. Status Quo - In the Army Now.wav
Pre-gap length  0:00:02.00
Peak level 99.0 %
Extraction speed 71.1 X
Track quality 100.0 %
Test CRC 73707BC0
Copy CRC 73707BC0
Track not present in AccurateRip database
Copy OK
Track  5
Filename M:\3. in preparation\VA - The Original Rock Meets Classic-2CD-FLAC-2014 {Sony Music Entertainment Germany GmbH. - 888750251923}\CD-2\05. Uriah Heep - Easy Livin'.wav
Pre-gap length  0:00:02.00
Peak level 99.0 %
Extraction speed 70.4 X
Track quality 100.0 %
Test CRC 037D04D3
Copy CRC 037D04D3
Track not present in AccurateRip database
Copy OK
Track  6
Filename M:\3. in preparation\VA - The Original Rock Meets Classic-2CD-FLAC-2014 {Sony Music Entertainment Germany GmbH. - 888750251923}\CD-2\06. Manfred Mann's Earth Band - Davy's on the Road Again.wav
Pre-gap length  0:00:02.00
Peak level 99.0 %
Extraction speed 70.2 X
Track quality 100.0 %
Test CRC AA17B143
Copy CRC AA17B143
Track not present in AccurateRip database
Copy OK
Track  7
Filename M:\3. in preparation\VA - The Original Rock Meets Classic-2CD-FLAC-2014 {Sony Music Entertainment Germany GmbH. - 888750251923}\CD-2\07. Barclay James Harvest - Life Is for Living.wav
Pre-gap length  0:00:02.00
Peak level 99.0 %
Extraction speed 68.0 X
Track quality 100.0 %
Test CRC DE6E205D
Copy CRC DE6E205D
Track not present in AccurateRip database
Copy OK
Track  8
Filename M:\3. in preparation\VA - The Original Rock Meets Classic-2CD-FLAC-2014 {Sony Music Entertainment Germany GmbH. - 888750251923}\CD-2\08. Mr. Big - Just Take my Heart.wav
Pre-gap length  0:00:02.00
Peak level 98.0 %
Extraction speed 54.0 X
Track quality 99.9 %
Test CRC 04645AF2
Copy CRC 04645AF2
Track not present in AccurateRip database
Copy OK
Track  9
Filename M:\3. in preparation\VA - The Original Rock Meets Classic-2CD-FLAC-2014 {Sony Music Entertainment Germany GmbH. - 888750251923}\CD-2\09. Europe - The Final Countdown.wav
Pre-gap length  0:00:02.00
Peak level 89.9 %
Extraction speed 72.6 X
Track quality 100.0 %
Test CRC DF51670F
Copy CRC DF51670F
Track not present in AccurateRip database
Copy OK
Track 10
Filename M:\3. in preparation\VA - The Original Rock Meets Classic-2CD-FLAC-2014 {Sony Music Entertainment Germany GmbH. - 888750251923}\CD-2\10. Nazareth - Dream On.wav
Pre-gap length  0:00:02.00
Peak level 99.0 %
Extraction speed 61.5 X
Track quality 99.9 %
Test CRC 5C02CCDF
Copy CRC 5C02CCDF
Track not present in AccurateRip database
Copy OK
Track 11
Filename M:\3. in preparation\VA - The Original Rock Meets Classic-2CD-FLAC-2014 {Sony Music Entertainment Germany GmbH. - 888750251923}\CD-2\11. Bonnie Tyler - Holding Out for a Hero.wav
Pre-gap length  0:00:02.00
Peak level 99.0 %
Extraction speed 66.7 X
Track quality 99.9 %
Test CRC 30F4609B
Copy CRC 30F4609B
Track not present in AccurateRip database
Copy OK
Track 12
Filename M:\3. in preparation\VA - The Original Rock Meets Classic-2CD-FLAC-2014 {Sony Music Entertainment Germany GmbH. - 888750251923}\CD-2\12. Journey - Faithfully.wav
Pre-gap length  0:00:02.00
Peak level 94.4 %
Extraction speed 67.6 X
Track quality 100.0 %
Test CRC 1B0004EB
Copy CRC 1B0004EB
Track not present in AccurateRip database
Copy OK
Track 13
Filename M:\3. in preparation\VA - The Original Rock Meets Classic-2CD-FLAC-2014 {Sony Music Entertainment Germany GmbH. - 888750251923}\CD-2\13. Heart - Alone.wav
Pre-gap length  0:00:02.00
Peak level 90.3 %
Extraction speed 58.8 X
Track quality 100.0 %
Test CRC 9AD67A1E
Copy CRC 9AD67A1E
Track not present in AccurateRip database
Copy OK
Track 14
Filename M:\3. in preparation\VA - The Original Rock Meets Classic-2CD-FLAC-2014 {Sony Music Entertainment Germany GmbH. - 888750251923}\CD-2\14. Primal Fear & Mat Sinners - Fighting the Darkness.wav
Pre-gap length  0:00:02.00
Peak level 91.0 %
Extraction speed 60.0 X
Track quality 100.0 %
Test CRC 837F24F4
Copy CRC 837F24F4
Track not present in AccurateRip database
Copy OK
Track 15
Filename M:\3. in preparation\VA - The Original Rock Meets Classic-2CD-FLAC-2014 {Sony Music Entertainment Germany GmbH. - 888750251923}\CD-2\15. Kim Wilde - Kids in America.wav
Pre-gap length  0:00:02.00
Peak level 92.4 %
Extraction speed 58.0 X
Track quality 100.0 %
Test CRC 7C19942A
Copy CRC 7C19942A
Track not present in AccurateRip database
Copy OK
Track 16
Filename M:\3. in preparation\VA - The Original Rock Meets Classic-2CD-FLAC-2014 {Sony Music Entertainment Germany GmbH. - 888750251923}\CD-2\16. Chris Thompson - You're the Voice.wav
Pre-gap length  0:00:02.00
Peak level 99.0 %
Extraction speed 70.0 X
Track quality 99.9 %
Test CRC 00212A60
Copy CRC 00212A60
Track not present in AccurateRip database
Copy OK
Track 17
Filename M:\3. in preparation\VA - The Original Rock Meets Classic-2CD-FLAC-2014 {Sony Music Entertainment Germany GmbH. - 888750251923}\CD-2\17. Ultravox - Vienna.wav
Pre-gap length  0:00:02.00
Peak level 99.0 %
Extraction speed 69.4 X
Track quality 100.0 %
Test CRC 2C6801A6
Copy CRC 2C6801A6
Track not present in AccurateRip database
Copy OK
Track 18
Filename M:\3. in preparation\VA - The Original Rock Meets Classic-2CD-FLAC-2014 {Sony Music Entertainment Germany GmbH. - 888750251923}\CD-2\18. Berliner Sinfonie Orchester , Dir.- Guenther Herbig - Bolero.wav
Pre-gap length  0:00:02.00
Peak level 99.0 %
Extraction speed 75.7 X
Track quality 100.0 %
Test CRC 8BE3C964
Copy CRC 8BE3C964
Track not present in AccurateRip database
Copy OK
None of the tracks are present in the AccurateRip database
No errors occurred
End of status report
---- CUETools DB Plugin V2.1.4
[CTDB TOCID: 5vE1p7qBXkaLbWKGesz0fT1sMwE-] disk not present in database
Submit result: 5vE1p7qBXkaLbWKGesz0fT1sMwE- has been uploaded
==== Log checksum 8EA173335F9089DF761723F991B377633C0E82B052A69709A4487E7687E9ECF9 ====

Индексная карта (non-compilant .cue)

CD1
REM GENRE Rock
REM DATE 2014
REM DISCID 3812F213
REM COMMENT "ExactAudioCopy v1.0b3"
PERFORMER "Various Artists"
TITLE "The Original Rock Meets Classic [CD1]"
FILE "01. Queen - The Show Must Go On.wav" WAVE
TRACK 01 AUDIO
TITLE "The Show Must Go On"
PERFORMER "Queen"
INDEX 01 00:00:00
TRACK 02 AUDIO
TITLE "Smoke on the Water"
PERFORMER "Deep Purple"
INDEX 00 04:35:50
FILE "02. Deep Purple - Smoke on the Water.wav" WAVE
INDEX 01 00:00:00
TRACK 03 AUDIO
TITLE "Poison"
PERFORMER "Alice Cooper"
INDEX 00 05:39:05
FILE "03. Alice Cooper - Poison.wav" WAVE
INDEX 01 00:00:00
TRACK 04 AUDIO
TITLE "Whatever You Want"
PERFORMER "Status Quo"
INDEX 00 04:29:33
FILE "04. Status Quo - Whatever You Want.wav" WAVE
INDEX 01 00:00:00
TRACK 05 AUDIO
TITLE "All Right Now"
PERFORMER "Free"
INDEX 00 04:00:57
FILE "05. Free - All Right Now.wav" WAVE
INDEX 01 00:00:00
TRACK 06 AUDIO
TITLE "For You"
PERFORMER "Manfred Mann's Earth Band"
INDEX 00 04:12:58
FILE "06. Manfred Mann's Earth Band - For You.wav" WAVE
INDEX 01 00:00:00
TRACK 07 AUDIO
TITLE "Juke Box Hero"
PERFORMER "Foreigner"
INDEX 00 05:40:72
FILE "07. Foreigner - Juke Box Hero.wav" WAVE
INDEX 01 00:00:00
TRACK 08 AUDIO
TITLE "Lady in Black"
PERFORMER "Uriah Heep"
INDEX 00 04:21:00
FILE "08. Uriah Heep - Lady in Black.wav" WAVE
INDEX 01 00:00:00
TRACK 09 AUDIO
TITLE "Rosanna"
PERFORMER "Toto"
INDEX 00 04:46:50
FILE "09. Toto - Rosanna.wav" WAVE
INDEX 01 00:00:00
TRACK 10 AUDIO
TITLE "Since You Been Gone"
PERFORMER "Rainbow"
INDEX 00 04:01:67
FILE "10. Rainbow - Since You Been Gone.wav" WAVE
INDEX 01 00:00:00
TRACK 11 AUDIO
TITLE "Total-Eclipse of the Heart"
PERFORMER "Bonnie Tyler"
INDEX 00 03:15:69
FILE "11. Bonnie Tyler - Total-Eclipse of the Heart.wav" WAVE
INDEX 01 00:00:00
TRACK 12 AUDIO
TITLE "Johnny B."
PERFORMER "The Hooters"
INDEX 00 04:27:29
FILE "12. The Hooters - Johnny B..wav" WAVE
INDEX 01 00:00:00
TRACK 13 AUDIO
TITLE "Burning Heart"
PERFORMER "Survivor"
INDEX 00 03:57:59
FILE "13. Survivor - Burning Heart.wav" WAVE
INDEX 01 00:00:00
TRACK 14 AUDIO
TITLE "Feel Like Makin' Love"
PERFORMER "Bad Company"
INDEX 00 03:49:42
FILE "14. Bad Company - Feel Like Makin' Love.wav" WAVE
INDEX 01 00:00:00
TRACK 15 AUDIO
TITLE "Don't Stop Believin'"
PERFORMER "Journey"
INDEX 00 05:10:27
FILE "15. Journey - Don't Stop Believin'.wav" WAVE
INDEX 01 00:00:00
TRACK 16 AUDIO
TITLE "Until It Hurts"
PERFORMER "Mat Sinner"
INDEX 00 04:09:18
FILE "16. Mat Sinner - Until It Hurts.wav" WAVE
INDEX 01 00:00:00
TRACK 17 AUDIO
TITLE "To be With You"
PERFORMER "Mr. Big"
INDEX 00 03:37:25
FILE "17. Mr. Big - To be With You.wav" WAVE
INDEX 01 00:00:00
TRACK 18 AUDIO
TITLE "Love Hurts (Rock Orchestra version)"
PERFORMER "Nazareth"
INDEX 00 03:26:60
FILE "18. Nazareth - Love Hurts (Rock Orchestra version).wav" WAVE
INDEX 01 00:00:00
TRACK 19 AUDIO
TITLE "Alla marcia e molto mar"
PERFORMER "Andrew Davis IV. in the Hall of The Mountain King (in der halle des bergkoenigs)"
INDEX 00 04:05:36
FILE "19. Andrew Davis IV. in the Hall of The Mountain King (in der halle des bergkoenigs) - Alla marcia e molto mar.wav" WAVE
INDEX 01 00:00:00
CD2
REM GENRE Rock
REM DATE 2014
REM DISCID 0A12DE12
REM COMMENT "ExactAudioCopy v1.0b3"
PERFORMER "Various Artists"
TITLE "The Original Rock Meets Classic [CD2]"
FILE "01. Toto - Child's Anthem.wav" WAVE
TRACK 01 AUDIO
TITLE "Child's Anthem"
PERFORMER "Toto"
INDEX 01 00:00:00
TRACK 02 AUDIO
TITLE "Heat of the Moment"
PERFORMER "Asia"
INDEX 00 02:46:33
FILE "02. Asia - Heat of the Moment.wav" WAVE
INDEX 01 00:00:00
TRACK 03 AUDIO
TITLE "Eye of the Tiger"
PERFORMER "Survivor"
INDEX 00 03:49:24
FILE "03. Survivor - Eye of the Tiger.wav" WAVE
INDEX 01 00:00:00
TRACK 04 AUDIO
TITLE "In the Army Now"
PERFORMER "Status Quo"
INDEX 00 04:05:29
FILE "04. Status Quo - In the Army Now.wav" WAVE
INDEX 01 00:00:00
TRACK 05 AUDIO
TITLE "Easy Livin'"
PERFORMER "Uriah Heep"
INDEX 00 04:38:56
FILE "05. Uriah Heep - Easy Livin'.wav" WAVE
INDEX 01 00:00:00
TRACK 06 AUDIO
TITLE "Davy's on the Road Again"
PERFORMER "Manfred Mann's Earth Band"
INDEX 00 02:35:45
FILE "06. Manfred Mann's Earth Band - Davy's on the Road Again.wav" WAVE
INDEX 01 00:00:00
TRACK 07 AUDIO
TITLE "Life Is for Living"
PERFORMER "Barclay James Harvest"
INDEX 00 03:37:41
FILE "07. Barclay James Harvest - Life Is for Living.wav" WAVE
INDEX 01 00:00:00
TRACK 08 AUDIO
TITLE "Just Take my Heart"
PERFORMER "Mr. Big"
INDEX 00 03:37:69
FILE "08. Mr. Big - Just Take my Heart.wav" WAVE
INDEX 01 00:00:00
TRACK 09 AUDIO
TITLE "The Final Countdown"
PERFORMER "Europe"
INDEX 00 03:46:05
FILE "09. Europe - The Final Countdown.wav" WAVE
INDEX 01 00:00:00
TRACK 10 AUDIO
TITLE "Dream On"
PERFORMER "Nazareth"
INDEX 00 03:58:06
FILE "10. Nazareth - Dream On.wav" WAVE
INDEX 01 00:00:00
TRACK 11 AUDIO
TITLE "Holding Out for a Hero"
PERFORMER "Bonnie Tyler"
INDEX 00 03:25:39
FILE "11. Bonnie Tyler - Holding Out for a Hero.wav" WAVE
INDEX 01 00:00:00
TRACK 12 AUDIO
TITLE "Faithfully"
PERFORMER "Journey"
INDEX 00 04:22:48
FILE "12. Journey - Faithfully.wav" WAVE
INDEX 01 00:00:00
TRACK 13 AUDIO
TITLE "Alone"
PERFORMER "Heart"
INDEX 00 04:25:48
FILE "13. Heart - Alone.wav" WAVE
INDEX 01 00:00:00
TRACK 14 AUDIO
TITLE "Fighting the Darkness"
PERFORMER "Primal Fear & Mat Sinners"
INDEX 00 03:38:16
FILE "14. Primal Fear & Mat Sinners - Fighting the Darkness.wav" WAVE
INDEX 01 00:00:00
TRACK 15 AUDIO
TITLE "Kids in America"
PERFORMER "Kim Wilde"
INDEX 00 03:39:27
FILE "15. Kim Wilde - Kids in America.wav" WAVE
INDEX 01 00:00:00
TRACK 16 AUDIO
TITLE "You're the Voice"
PERFORMER "Chris Thompson"
INDEX 00 03:25:06
FILE "16. Chris Thompson - You're the Voice.wav" WAVE
INDEX 01 00:00:00
TRACK 17 AUDIO
TITLE "Vienna"
PERFORMER "Ultravox"
INDEX 00 04:08:27
FILE "17. Ultravox - Vienna.wav" WAVE
INDEX 01 00:00:00
TRACK 18 AUDIO
TITLE "Bolero"
PERFORMER "Berliner Sinfonie Orchester / Dir.: Guenther Herbig"
INDEX 00 04:38:19
FILE "18. Berliner Sinfonie Orchester , Dir.- Guenther Herbig - Bolero.wav" WAVE
INDEX 01 00:00:00
-
Яндекс.Метрика
Рейтинг@Mail.ru