Страховщик / Automata (2014) DVD9

 

Создавать темы 16-Янв-2015 16:46

-Страховщик / Automata (2014) DVD9- Жанр: Фантастика, Триллер
Страна: Испания, Болгария
Описание фильма:2044-й год. После природной катастрофы население Земли уменьшилось до 21 миллиона человек. Большую часть суши теперь занимает радиоактивная пустыня, а выжившие скрываются в городах за высокими стенами и искусственными облаками, которые созданы с помощью роботов — Пилигримов. Компания ROC изготавливает роботов, которые поддерживают существование оставшихся городов. Роботы снабжены защитным механизмом, который не позволяет им наносить вред людям. После одного инцидента страховщик Жак Вокан начинает подозревать, что роботы научились изменять себя.Режиссер: Габе Ибаньес
Продюсер: Антонио Бандерас, Сандра Эрмида, Дэнни Лернер
Актеры: Антонио Бандерас, Биргитта Йорт Сёренсен, Мелани Гриффит, Дилан МакДермотт, Роберт Форстер, Тим МакИннерни, Энди Найман, Дэвид Райалл, Эндрю Тирнан, Криста Кэмпбелл
Перевод: Дублированный
Субтитры: Отсутствуют

Дата мировой премьеры: 20.09.2014
Дата российской премьеры: 16.10.2014
Дата выхода DVD релиза: 09.12.2014
Дата выхода Blu-Ray релиза: 09.12.2014
Рейтинг MPAA: R
Возраст: 16+
Продолжительность: 01:45:23
Качество видео: DVD9
Видео: MPEG-2, [email protected], ~5984 Kbps, 25.000 fps
Аудио: AC3 5.1, 448 Kbps, 48 kHz, 16-bit [Русский Дубляж]

Интересные факты (могут содержать спойлеры):

  • Елена Анайя, которая работала с режиссером Габе Ибаньесом в фильме «Скелеты Железного острова» (2009), дала прочесть сценарий Антонио Бандерасу во время съемок фильма «Кожа, в которой я живу» (2011). Еще не дочитав сценарий, Антонио Бандерас позвонил режиссеру и сказал: «Я сейчас на 28 странице. Если и на 106-й сценарий будет такой же силы, мы сделаем это». Сценарий настолько вдохновил Бандераса, что он стал сопродюсером проекта.
  • Роботы были созданы таким образом, чтобы актеры смогли посмотреть им в глаза и установить с ними эмоциональный контакт, несмотря на то, что перед ними были создания из пластика.

Ошибки в фильме (спойлеры)

Во вступительных титрах указано, что действие происходит в 2044 году, однако на 43 минуте фильма Жак получает сообщение, в котором пропечатана дата 06/06/25

DVDInfo

Title: Страховщик (2014) DVD9
Size: 5.02 Gb ( 5 258 858,00 KBytes ) - DVD-9
Enabled regions: 1, 2, 3, 4, 5, 6, 7, 8
VTS_01 :
Play Length: 00:00:30+{00:00:30}+{00:00:30}
Video: PAL 16:9 (720x576) VBR, Auto Pan&Scan, Auto Letterboxed
Audio:
Russian, AC3, 2/0 (L,R) ch, 192 kbps, Delay 0 mSec
English,
English,
VTS_02 :
Play Length: 01:45:23
Video: PAL 16:9 (720x576) VBR, Auto Pan&Scan, Auto Letterboxed
Audio:
Russian (Dolby AC3, 6 ch)
* Menus Information *
VIDEO_TS Menu
Video:
PAL 16:9 (720x576) VBR
Auto Pan&Scan, Auto Letterboxed
English Language Unit :
Title Menu
VTS_01 Menu
Video:
PAL 16:9 (720x576) VBR
Auto Letterboxed
Audio:
Not specified (Dolby AC3, 2 ch)
English Language Unit :
Root Menu
Chapter (PTT) Menu
VTS_02 Menu
Video:
PAL 4:3 (720x576) VBR
English Language Unit :
Root Menu
Chapter (PTT) Menu

MediaInfo

General
Complete name                            : D:\Films\New folder\Страховщик (2014) DVD9\VIDEO_TS\VTS_02_3.VOB
Format                                   : MPEG-PS
File size                                : 1 024 MiB
Duration                                 : 21mn 48s
Overall bit rate mode                    : Variable
Overall bit rate                         : 6 563 Kbps
Video
ID                                       : 224 (0xE0)
Format                                   : MPEG Video
Format version                           : Version 2
Format profile                           : [email protected]
Format settings, BVOP                    : Yes
Format settings, Matrix                  : Custom
Format settings, GOP                     : M=3, N=12
Duration                                 : 21mn 48s
Bit rate mode                            : Variable
Bit rate                                 : 5 984 Kbps
Maximum bit rate                         : 8 000 Kbps
Width                                    : 720 pixels
Height                                   : 576 pixels
Display aspect ratio                     : 16:9
Frame rate                               : 25.000 fps
Standard                                 : PAL
Color space                              : YUV
Chroma subsampling                       : 4:2:0
Bit depth                                : 8 bits
Scan type                                : Progressive
Compression mode                         : Lossy
Bits/(Pixel*Frame)                       : 0.577
Time code of first frame                 : 00:45:11:22
Time code source                         : Group of pictures header
GOP, Open/Closed                         : Open
Stream size                              : 934 MiB (91%)
Audio
ID                                       : 189 (0xBD)-128 (0x80)
Format                                   : AC-3
Format/Info                              : Audio Coding 3
Mode extension                           : CM (complete main)
Format settings, Endianness              : Big
Muxing mode                              : DVD-Video
Duration                                 : 21mn 48s
Bit rate mode                            : Constant
Bit rate                                 : 448 Kbps
Channel(s)                               : 6 channels
Channel positions                        : Front: L C R, Side: L R, LFE
Sampling rate                            : 48.0 KHz
Bit depth                                : 16 bits
Compression mode                         : Lossy
Delay relative to video                  : -472ms
Stream size                              : 69.9 MiB (7%)

Скриншоты меню:

Скриншоты:
-Время раздачи: 24/7 по возможности
Яндекс.Метрика
Рейтинг@Mail.ru