Салам, New York! (2013) WEB-DLRip

 

Создавать темы 16-Янв-2015 10:09

-Салам, New York! (2013) WEB-DLRip- Производство: Кыргызстан, Nomadmen Films
Жанр: Комедия, драма, мелодрама
Режиссер: Руслан Акун
Актеры: Бектемир Мамаюсупов, Аида Тулебаева, Фредд Трим, Юлия Даурова, Сергей Смойлович, Алекс Мейзлин, Даниэль Бурканов
Описание фильма:
Фильм повествует о приключениях парня из Кыргызстана в удивительном мегаполисе! Сможет ли он обрести любовь, дружбу, счастье, успех на чужбине? Через что приходится пройти, чтобы добиться своей мечты? Отправьтесь вместе с «Салам, New York» в незабываемое путешествие!
Перевод: Не требуется (язык русский)

Продолжительность: 02:11:49
Качество видео: WEB-DLRip
Видеокодек: XviD
Битрейт видео: ~1986 Кбит/с
Размер кадра: 720x360
Аудиокодек: AC3 2 ch
Битрейт аудио: 224 Кбит/с

MediaInfo:

Общее
Полное имя : C:\DDGroup\Салам, New York\Salam New York! 2013 WEB-DLRip.avi
Формат : AVI
Формат/Информация : Audio Video Interleave
Профиль формата : OpenDML
Настройки формата : rec
Размер файла : 2,04 Гбайт
Продолжительность : 2 ч. 11 м.
Общий поток : 2215 Кбит/сек
Программа кодирования : AVI-Mux GUI 1.17.8.3, Feb 16 201019:42:50
Видео
Идентификатор : 0
Формат : MPEG-4 Visual
Профиль формата : Advanced [email protected]
Параметр BVOP формата : Нет
Параметр QPel формата : Нет
Параметр GMC формата : Без точки перехода
Параметр матрицы формата : Default (MPEG)
Идентификатор кодека : XVID
Идентификатор кодека/Подсказка : XviD
Продолжительность : 2 ч. 11 м.
Битрейт : 1986 Кбит/сек
Ширина : 720 пикселей
Высота : 360 пикселей
Соотношение сторон : 2,000
Частота кадров : 25,000 кадров/сек
Цветовое пространство : YUV
Субдискретизация насыщенности : 4:2:0
Битовая глубина : 8 бит
Тип развёртки : Прогрессивная
Метод сжатия : С потерями
Бит/(Пиксели*Кадры) : 0.306
Размер потока : 1,83 Гбайт (90%)
Библиотека кодирования : XviD 62
Аудио
Идентификатор : 1
Формат : AC-3
Формат/Информация : Audio Coding 3
Расширение режима : CM (complete main)
Идентификатор кодека : 2000
Продолжительность : 2 ч. 11 м.
Вид битрейта : Постоянный
Битрейт : 224 Кбит/сек
Каналы : 2 канала
Расположение каналов : Front: L R
Частота : 48,0 КГц
Битовая глубина : 16 бит
Метод сжатия : С потерями
Размер потока : 211 Мбайт (10%)
Выравнивание : Соединение по промежуткам
Продолжительность промежутка : 64 мс. (1,60 видеокадра)
Время предзагрузки промежутка : 192 мс.
Заголовок : Rus_211
Скриншоты:-Время раздачи:Круглосуточно до 10 скачавших

Создавать темы 16-Янв-2015 15:39 (спустя 5 часов)

Фильм класс конечно не "колумбия пикчерс" но тоже не плохо.
Качество на низком уровне.
Яндекс.Метрика
Рейтинг@Mail.ru