Мамы 3 (2014) WEBRip

 

Создавать темы 16-Янв-2015 10:01

-Мамы 3 (2014) WEB-DLRip- Производство: Россия
Жанр: Комедия, Семейный
Описание фильма:
31 декабря наши Мамы вместо того, чтобы резать оливье и смотреть «Иронию Судьбы», летят в Прагу праздновать Новый Год «по-европейски». Но самолет из-за погодных условий вынужден приземлиться в аэропорту небольшого, но очень красивого и уютного польского городка. Город встречает Мам абсолютно пустыми улицами. Новый Год для местных жителей- спокойный праздник. Наших Мам и их попутчиков это категорически не устраивает, и они решают устроить в этой «провинциальной Европе» настоящий, безбашенный Новый Год «по-нашему»… Дело за малым — найти Деда Мороза, Советское шампанское, оливье, петарды… в общем, всё, что нужно для праздника!
Режиссер: Георгий Малков, Эмиль Никогосян
Актеры: Гарик Харламов, Ольга Волкова, Мария Сёмкина, Андрей Ургант, Евгений Шапошников, Артём Киселёв, Кристина Орса, Анастасия Заворотнюк, Тимур Родригез, Евгений Сморигин, Захар Соколов
Перевод: Не требуется (русский)
Субтитры: отсутствуют

Дата мировой премьеры: 25 декабря 2014
Дата российской премьеры: 25 декабря 2014
Продолжительность: 01:24:10
Качество видео: WEBRip
Видеокодек: Xvid
Битрейт видео: ~1932 kb/s
Размер кадра: 720x304
Аудиокодек: AC3 2.0
Битрейт аудио: 384 kb/s (2 ch)
Сэмпл: Скачать

Mediainfo:

Общее
Полное имя                               : C:\downloads\Видео\Mamy.Z.2014.O.WEBRip.1400MB.avi
Формат                                   : AVI
Формат/Информация                        : Audio Video Interleave
Размер файла                             : 1,37 Гбайт
Продолжительность                        : 1 ч. 24 м.
Общий поток                              : 2326 Кбит/сек
Программа кодирования                    : VirtualDubMod 1.5.10.3 | [url=http://www.virtualdub-fr.org]www.virtualdub-fr.org[/url] || (build 2550/release)
Библиотека кодирования                   : VirtualDubMod build 2550/release
Видео
Идентификатор                            : 0
Формат                                   : MPEG-4 Visual
Профиль формата                          : Advanced [email protected]
Параметр BVOP формата                    : 2
Параметр QPel формата                    : Нет
Параметр GMC формата                     : Без точки перехода
Параметр матрицы формата                 : Default (MPEG)
Идентификатор кодека                     : XVID
Идентификатор кодека/Подсказка           : XviD
Продолжительность                        : 1 ч. 24 м.
Битрейт                                  : 1932 Кбит/сек
Ширина                                   : 720 пикселей
Высота                                   : 304 пикселя
Соотношение сторон                       : 2,35:1
Частота кадров                           : 25,000 кадров/сек
Цветовое пространство                    : YUV
Субдискретизация насыщенности            : 4:2:0
Битовая глубина                          : 8 бит
Тип развёртки                            : Прогрессивная
Метод сжатия                             : С потерями
Бит/(Пиксели*Кадры)                      : 0.353
Размер потока                            : 1,14 Гбайт (83%)
Библиотека кодирования                   : XviD 1.2.1 (UTC 2008-12-04)
Аудио
Идентификатор                            : 1
Формат                                   : AC-3
Формат/Информация                        : Audio Coding 3
Расширение режима                        : CM (complete main)
Параметр Endianness формата              : Big
Идентификатор кодека                     : 2000
Продолжительность                        : 1 ч. 24 м.
Вид битрейта                             : Постоянный
Битрейт                                  : 384 Кбит/сек
Каналы                                   : 2 канала
Расположение каналов                     : Front: L R
Частота                                  : 44,1 КГц
Битовая глубина                          : 16 бит
Метод сжатия                             : С потерями
Размер потока                            : 231 Мбайт (17%)
Выравнивание                             : Разделение по промежуткам
Продолжительность промежутка             : 40  мс. (1,00 видеокадр)
Время предзагрузки промежутка            : 500  мс.
Скриншоты:
-Время раздачи: по возможности
Яндекс.Метрика
Рейтинг@Mail.ru