Мрачное лето / Dark Summer (2015) WEB-DL [H.264/720p-LQ]

 

Создавать темы 16-Янв-2015 07:25

-Мрачное лето / Dark Summer (2014) WEB-DL- Производство: США, IFC Midnight
Жанр: Триллер, Мистика
Режиссер: Пол Солет
Продюсер: Росс М. Динерштейн, Цаба Берецки, Джулиана Кардарелли
Актеры: Кейр Гилкрист, Петер Стормаре, Грэйс Фиппс, Стелла Маив, Маэстро Харрелл
Описание фильма:
История Дэниела Вильямса, 17-летнего подростка, которого суд приговорил к домашнему аресту на все лето. Пока его мать отлучилась по делам, в доме происходит происшествие, которое влечет за собой цепь страшных и непредсказуемых событий. Одноклассница Дэниэла звонит ему по скайпу и обвиняет его в том, что он довел ее до самоубийства. Обвиняет и убивает себя прямо на его глазах. Перед смертью она говорит, что придет к нему после смерти и заберет его с собой…
Перевод: Двуголосый закадровый, любительский
Озвучка / Автор перевода: DeadSno & den904 / Антонио
Субтитры: Вшитые отключаемые
Язык субтитров: Английский

Дата мировой премьеры: 9 января 2015
Продолжительность: 01:21:37
Качество видео: WEB-DL [H.264/720p-LQ]
Битрейт видео: ~3909 kb/s
Размер кадра: 1280x720
Аудиокодек: AC3 5.1
Аудио#1: 384 kb/s, 6ch - русский
Аудио#2: 384 kb/s, 6ch - английский

Mediainfo:

Общее
Уникальный идентификатор                 : 213483030037491464466738710727315969449 (0xA09B560531F898A3BE0B895B267855A9)
Полное имя                               : D:\KINO 3\Dark.Summer.2015.WEB-DL.720p.[SPAM].mkv
Формат                                   : Matroska
Версия формата                           : Version 4 / Version 2
Размер файла                             : 2,72 Гбайт
Продолжительность                        : 1 ч. 21 м.
Общий поток                              : 4772 Кбит/сек
Дата кодирования                         : UTC 2015-01-14 17:14:04
Программа кодирования                    : mkvmerge v7.5.0 ('Glass Culture') 64bit built on Jan  4 2015 16:48:44
Библиотека кодирования                   : libebml v1.3.1 + libmatroska v1.4.2
Видео
Идентификатор                            : 1
Формат                                   : AVC
Формат/Информация                        : Advanced Video Codec
Профиль формата                          : [url=mailto:[email protected]][email protected][/url]
Параметр CABAC формата                   : Нет
Параметр ReFrames формата                : 2 кадра
Идентификатор кодека                     : V_MPEG4/ISO/AVC
Продолжительность                        : 1 ч. 21 м.
Битрейт                                  : 3909 Кбит/сек
Ширина                                   : 1280 пикселей
Высота                                   : 720 пикселей
Соотношение сторон                       : 16:9
Режим частоты кадров                     : Постоянный
Частота кадров                           : 23,976 кадра/сек
Цветовое пространство                    : YUV
Субдискретизация насыщенности            : 4:2:0
Битовая глубина                          : 8 бит
Тип развёртки                            : Прогрессивная
Бит/(Пиксели*Кадры)                      : 0.177
Размер потока                            : 2,23 Гбайт (82%)
Язык                                     : English
Default                                  : Да
Forced                                   : Нет
Основные цвета                           : BT.709
Характеристики трансфера                 : BT.709
Коэффициенты матрицы                     : BT.709
colour_range                             : Limited
Аудио #1
Идентификатор                            : 2
Формат                                   : AC-3
Формат/Информация                        : Audio Coding 3
Расширение режима                        : CM (complete main)
Параметр Endianness формата              : Big
Идентификатор кодека                     : A_AC3
Продолжительность                        : 1 ч. 21 м.
Вид битрейта                             : Постоянный
Битрейт                                  : 384 Кбит/сек
Каналы                                   : 6 каналов
Расположение каналов                     : Front: L C R, Side: L R, LFE
Частота                                  : 48,0 КГц
Битовая глубина                          : 16 бит
Метод сжатия                             : С потерями
Размер потока                            : 224 Мбайт (8%)
Заголовок                                : Влад и Снежинка
Язык                                     : Russian
Default                                  : Да
Forced                                   : Да
Аудио #2
Идентификатор                            : 3
Формат                                   : AC-3
Формат/Информация                        : Audio Coding 3
Расширение режима                        : CM (complete main)
Параметр Endianness формата              : Big
Идентификатор кодека                     : A_AC3
Продолжительность                        : 1 ч. 21 м.
Вид битрейта                             : Постоянный
Битрейт                                  : 384 Кбит/сек
Каналы                                   : 6 каналов
Расположение каналов                     : Front: L C R, Side: L R, LFE
Частота                                  : 48,0 КГц
Битовая глубина                          : 16 бит
Метод сжатия                             : С потерями
Размер потока                            : 224 Мбайт (8%)
Язык                                     : English
Default                                  : Нет
Forced                                   : Нет
Текст #2
Идентификатор                            : 5
Формат                                   : UTF-8
Идентификатор кодека                     : S_TEXT/UTF8
Идентификатор кодека/Информация          : UTF-8 Plain Text
Язык                                     : English
Default                                  : Нет
Forced                                   : Нет
Меню
00:00:00.000                             : en:1
00:10:45.000                             : en:2
00:21:42.000                             : en:3
00:29:55.000                             : en:4
00:39:57.000                             : en:5
00:49:08.000                             : en:6
01:01:02.000                             : en:7
01:10:40.000                             : en:8
01:16:11.000                             : en:9
Скриншоты:
-Время раздачи: 24/7 до 5 скачавших
Яндекс.Метрика
Рейтинг@Mail.ru