Час Пик 2 / Rush Hour 2 (Бретт Рэтнер / Brett Ratner) [2001 г., боевик, комедия, WEB-DLRip-AVC] AVO (Гаврилов) + VO (Славянин) + MVO (LDV) + Dub

 

Создавать темы 15-Янв-2015 06:57

Час Пик 2 / Rush Hour 2
Год выпуска: 2001
Производство: США, Гонконг
Жанр: боевик, комедия
Продолжительность: 01:30:04
Перевод: Авторский (одноголосый, закадровый) Гаврилов
Перевод 2: Любительский (одноголосый, закадровый) Славянин
Перевод 3: Профессиональный (многоголосый, закадровый) LDV
Перевод 4: Профессиональный (полное дублирование)
Режиссер: Бретт Рэтнер / Brett Ratner
В ролях: Джеки Чан, Крис Такер, Джон Лоун, Чжан Цзыи, Розелин Санчез
Описание: Детективы Ли и Картер снова вместе! На этот раз — в Гонконге, куда Картер приехал, чтобы отдохнуть и оттянуться в компании старого приятеля. Приятель же как раз в этот момент занят важным расследованием — он выслеживает одного из боссов Триады, подозреваемого в организации взрыва в американском посольстве...

Сэмпл ,
Качество видео: WEB-DLRip-AVC
Контейнер: MKV
Видео кодек: H.264
Аудио кодек: AC3
Видео: 2 604 Kbps, 1060*444 pixels, 2.40:1, 23.976 fps
Аудио : AC3, 384 Kbps, 6 channels, 48.0 KHz, 16 bits - Гаврилов
Аудио #2: AC3, 192 Kbps, 2 channels, 48.0 KHz, 16 bits - Славянин
Аудио #3: AC3, 384 Kbps, 6 channels, 48.0 KHz, 16 bits - MVO (LDV)
Аудио #4: AC3, 384 Kbps, 6 channels, 48.0 KHz, 16 bits - Dub

Media Info

C:\Users\leha\Desktop\Новая папка (4)\Час Пик 2.WEB-DLRip-AVC.2001.mkv
General
Unique ID : 235175245322482298420451466299351084108 (0xB0ED1ACE921776CD97D30A030931AC4C)
Complete name : C:\Users\leha\Desktop\Новая папка (4)\Час Пик 2.WEB-DLRip-AVC.2001.mkv
Format : Matroska
Format version : Version 4 / Version 2
File size : 2.48 GiB
Duration : 1h 30mn
Overall bit rate : 3 944 Kbps
Encoded date : UTC 2015-01-13 14:13:30
Writing application : mkvmerge v6.1.0 ('Old Devil') built on Mar 4 2013 09:10:42
Writing library : libebml v1.3.0 + libmatroska v1.4.0
Video #1
ID : 1
Format : AVC
Format/Info : Advanced Video Codec
Format profile : [email protected]
Format settings, CABAC : Yes
Format settings, ReFrames : 16 frames
Codec ID : V_MPEG4/ISO/AVC
Duration : 1h 30mn
Bit rate : 2 604 Kbps
Width : 1 060 pixels
Height : 444 pixels
Display aspect ratio : 2.40:1
Frame rate : 23.976 fps
Color space : YUV
Chroma subsampling : 4:2:0
Bit depth : 8 bits
Scan type : Progressive
Bits/(Pixel*Frame) : 0.231
Stream size : 1.59 GiB (64%)
Writing library : x264 core 130 r2273 b3065e6
Encoding settings : cabac=1 / ref=16 / deblock=1:-1:-1 / analyse=0x3:0x133 / me=umh / subme=10 / psy=1 / psy_rd=1.00:0.15 / mixed_ref=1 / me_range=32 / chroma_me=1 / trellis=2 / 8x8dct=1 / cqm=0 / deadzone=21,11 / fast_pskip=0 / chroma_qp_offset=-3 / threads=12 / lookahead_threads=2 / sliced_threads=0 / nr=0 / decimate=0 / interlaced=0 / bluray_compat=0 / constrained_intra=0 / bframes=8 / b_pyramid=2 / b_adapt=2 / b_bias=0 / direct=3 / weightb=1 / open_gop=0 / weightp=2 / keyint=250 / keyint_min=23 / scenecut=40 / intra_refresh=0 / rc=2pass / mbtree=0 / bitrate=2604 / ratetol=1.0 / qcomp=0.60 / qpmin=0 / qpmax=69 / qpstep=4 / cplxblur=20.0 / qblur=0.5 / ip_ratio=1.40 / pb_ratio=1.30 / aq=1:1.00
Audio #2
ID : 2
Format : AC-3
Format/Info : Audio Coding 3
Mode extension : CM (complete main)
Codec ID : A_AC3
Duration : 1h 30mn
Bit rate mode : Constant
Bit rate : 384 Kbps
Channel(s) : 6 channels
Channel positions : Front: L C R, Side: L R, LFE
Sampling rate : 48.0 KHz
Bit depth : 16 bits
Compression mode : Lossy
Stream size : 247 MiB (10%)
Title : Гаврилов
Audio #3
ID : 3
Format : AC-3
Format/Info : Audio Coding 3
Mode extension : CM (complete main)
Codec ID : A_AC3
Duration : 1h 30mn
Bit rate mode : Constant
Bit rate : 192 Kbps
Channel(s) : 2 channels
Channel positions : Front: L R
Sampling rate : 48.0 KHz
Bit depth : 16 bits
Compression mode : Lossy
Delay relative to video : 1s 700ms
Stream size : 124 MiB (5%)
Title : Славянин
Audio #4
ID : 4
Format : AC-3
Format/Info : Audio Coding 3
Mode extension : CM (complete main)
Codec ID : A_AC3
Duration : 1h 30mn
Bit rate mode : Constant
Bit rate : 384 Kbps
Channel(s) : 6 channels
Channel positions : Front: L C R, Side: L R, LFE
Sampling rate : 48.0 KHz
Bit depth : 16 bits
Compression mode : Lossy
Stream size : 247 MiB (10%)
Title : MVO (LDV)
Audio #5
ID : 5
Format : AC-3
Format/Info : Audio Coding 3
Mode extension : CM (complete main)
Codec ID : A_AC3
Duration : 1h 30mn
Bit rate mode : Constant
Bit rate : 384 Kbps
Channel(s) : 6 channels
Channel positions : Front: L C R, Side: L R, LFE
Sampling rate : 48.0 KHz
Bit depth : 16 bits
Compression mode : Lossy
Stream size : 247 MiB (10%)
Title : Dub

log x.264

x264 [info]: frame I:1227  Avg QP:15.75  size: 70844
x264 [info]: frame P:36590 Avg QP:18.27 size: 24743
x264 [info]: frame B:91759 Avg QP:20.38 size: 8350
x264 [info]: consecutive B-frames: 3.2% 8.2% 6.8% 69.7% 5.7% 5.4% 0.4% 0.4% 0.2%
x264 [info]: mb I I16..4: 13.5% 57.2% 29.3%
x264 [info]: mb P I16..4: 3.4% 20.0% 4.3% P16..4: 34.5% 21.3% 12.7% 0.5% 0.1% skip: 3.2%
x264 [info]: mb B I16..4: 0.6% 2.6% 0.6% B16..8: 36.2% 14.4% 3.8% direct:10.0% skip:31.8% L0:36.6% L1:44.2% BI:19.3%
x264 [info]: 8x8 transform intra:69.8% inter:56.1%
x264 [info]: direct mvs spatial:99.0% temporal:1.0%
x264 [info]: coded y,uvDC,uvAC intra: 77.7% 82.1% 64.0% inter: 26.7% 35.3% 15.7%
x264 [info]: i16 v,h,dc,p: 35% 24% 14% 27%
x264 [info]: i8 v,h,dc,ddl,ddr,vr,hd,vl,hu: 16% 14% 14% 6% 9% 10% 10% 10% 11%
x264 [info]: i4 v,h,dc,ddl,ddr,vr,hd,vl,hu: 16% 18% 7% 7% 11% 11% 11% 9% 10%
x264 [info]: i8c dc,h,v,p: 43% 26% 20% 11%
x264 [info]: Weighted P-Frames: Y:6.8% UV:3.3%
x264 [info]: ref P L0: 53.7% 10.3% 16.7% 4.5% 3.6% 2.3% 2.1% 1.1% 1.1% 0.8% 0.8% 0.7% 0.7% 0.6% 0.6% 0.5%
x264 [info]: ref B L0: 83.5% 8.4% 2.7% 1.4% 0.9% 0.7% 0.5% 0.3% 0.3% 0.3% 0.2% 0.2% 0.2% 0.1% 0.1%
x264 [info]: ref B L1: 96.5% 3.5%
x264 [info]: kb/s:2603.02

Скриншоты

Яндекс.Метрика
Рейтинг@Mail.ru