Спасение / The Salvation (Кристиан Левринг / Kristian Levring) [2014 г., драма, вестерн, HDRip] Dub (Чистый звук)

 

Создавать темы 15-Янв-2015 06:43

-Спасение / The Salvation-«Плохие парни умоются кровью»- Производство: Дания, Великобритания, ЮАР / Zentropa Entertainments, Forward Films, Spier Films
Год выпуска: 2014 г.
Жанр: драма, вестерн
Продолжительность: 01:27:56
Мировая премьера: 17 мая 2014
Российская премьера: 13 ноября 2014, «Cinema Prestige»13 ноября 2014, «Cinema Prestige»
Перевод: Профессиональный (полное дублирование) [Чистый звук]-Режиссер: Кристиан Левринг / Kristian Levring
В ролях: Мадс Миккельсен, Ева Грин, Джеффри Дин Морган, Эрик Кантона, Микаэл Персбрандт, Дуглас Хеншэлл, Майкл Рэймонд-Джеймс, Джонатан Прайс, Александр Арнольд, Нанна Оланд Фабрициус-Описание: Джон, фермер, чья семья убита, дает клятву отомстить, выслеживает и наказывает убийцу. Его действия запускают цепочку насилия: лидер местной банды со своими напарниками решает расправиться с Джоном и его деревней.- -Качество видео: HDRip
Контейнер: AVI
Видео кодек: XviD
Аудио кодек: AC3
Видео: 720x304 (2.37:1), 25 fps, XviD build 50 ~1831 kbps avg, 0.33 bit/pixel
Аудио: 48 kHz, AC3 Dolby Digital, 2/0 (L,R) ch, ~384 kbps
Cубтитры: отсутствуют

Media Info

General
Complete name : D:\Спасение 2014 ДБ (Line) HDRip.avi
Format : AVI
Format/Info : Audio Video Interleave
File size : 1.37 GiB
Duration : 1h 27mn
Overall bit rate : 2 226 Kbps
Writing application : VirtualDubMod 1.5.10.2 (build 2540/release)
Writing library : VirtualDubMod build 2540/release
Video
ID : 0
Format : MPEG-4 Visual
Format profile : Advanced [email protected]
Format settings, BVOP : 2
Format settings, QPel : No
Format settings, GMC : No warppoints
Format settings, Matrix : Default (MPEG)
Codec ID : XVID
Codec ID/Hint : XviD
Duration : 1h 27mn
Bit rate : 1 832 Kbps
Width : 720 pixels
Height : 304 pixels
Display aspect ratio : 2.35:1
Frame rate : 25.000 fps
Color space : YUV
Chroma subsampling : 4:2:0
Bit depth : 8 bits
Scan type : Progressive
Compression mode : Lossy
Bits/(Pixel*Frame) : 0.335
Stream size : 1.13 GiB (82%)
Writing library : XviD 1.2.1 (UTC 2008-12-04)
Audio
ID : 1
Format : AC-3
Format/Info : Audio Coding 3
Mode extension : CM (complete main)
Format settings, Endianness : Big
Codec ID : 2000
Duration : 1h 27mn
Bit rate mode : Constant
Bit rate : 384 Kbps
Channel(s) : 2 channels
Channel positions : Front: L R
Sampling rate : 48.0 KHz
Bit depth : 16 bits
Compression mode : Lossy
Stream size : 242 MiB (17%)
Alignment : Split accross interleaves
Interleave, duration : 40 ms (1.00 video frame)
Interleave, preload duration : 500 ms

Скриншоты

Яндекс.Метрика
Рейтинг@Mail.ru