[ Сегодня на трекере фрилич! Идет свободное скачивание без начисления Download ]

Бесстыжие / Shameless / Сезон: 5 / Серии: 1 из 12 (Марк Майлод / Mark Mylod ...) [2015 г., драма, комедия, ..., HDTVRip] МVO (AlexFilm) + Original (Eng) [обновляемая]

 

Создавать темы 15-Янв-2015 06:40

Бесстыжие / Shameless
«The Gallaghers: Absolutely, Wildly, Unapologetically...»
- Страна: США
Год выпуска: 2015
Жанр: драма, комедия, ...-Озвучка: Студия
Перевод: Многоголосый закадровый, профессиональный
Оригинальный аудиопоток: английский-Озвучка: Евгения Тихонова, Анастасия Флигина, Константин Погодаев, Александр Дасевич, Михаил Суслов
Монтаж и сведение звука: Михаил Шорыгин (1)
Автор перевода: Ольга Галайда
Постер: Андрей Шапал-Премьера (мир): 9 января 2011, ...
Премьера (РФ): 18 июня 2013-Режиссер: Марк Майлод / Mark Mylod, Мими Ледер / Mimi Leder, Энтони Хемингуэй / Anthony Hemingway, ...
В главных ролях: Уильям Х. Мэйси, Эмми Россам, Камерон Монахэн, Джереми Аллен Уайт, Эмма Кинни, Итэн Каткоски, Блейк Александр Джонсон, Бреннан Кэйн Джонсон, Шанола Хэмптон, Стив Хоуи, Джоан Кьюсак, Ноэль Фишер, Эмма Гринвелл, Джэйк Макдорман ...-Описание фильма:
Американский ремейк британского сериала, повествующий о взбалмошной многодетной семье Галлахеров и их соседях, которые веселятся, попадают в самые невероятные ситуации и пытаются выжить в этом мире всеми возможными средствами, но при этом как можно меньше работая.
Мать уже давно бросила семью, а отец-алкоголик обычно лежит в отключке, поэтому старшей дочери приходится взять на себя обязанности родителя и воспитывать четверых братьев и сестру.-Сезон: 5
Серии: 1 из 12 серий
Продолжительность: ~ 00:54:00 мин серия-Качество видео: HDTVRip
Формат: AVI
Видеокодек: XviD
Аудиокодек: MP3
Видео: MPEG-4 Visual at 1407 Кбит/сек: 720 x 400 (1.800) at 23.976 fps, 0.20 bit/pixel
Аудио Rus: MPEG Audio at 128 Кбит/сек, 2 канала, 48,0 КГц |AlexFilm|
Аудио Eng: MPEG Audio at 128 Кбит/сек, 2 канала, 48,0 КГц |Original|
Cубтитры: отсутствуют
-
-

Список серий:

  • Молоко богов (Milk of the Gods)
-

MediaInfo:

Общее
Полное имя : E:\_Сериалы\_Сериалы\Бесстыжие\Shameless (US) - Season 5 (AlexFilm)\Shameless.US.s05e01.Rus.Eng.AlexFilm.avi
Формат : AVI
Формат/Информация : Audio Video Interleave
Размер файла : 655 Мбайт
Продолжительность : 54 м.
Общий поток : 1677 Кбит/сек
Программа кодирования : VirtualDubMod 1.5.10.2 (build 2542/release)
Библиотека кодирования : VirtualDubMod build 2542/release
Видео
Идентификатор : 0
Формат : MPEG-4 Visual
Профиль формата : Advanced [email protected]
Параметр BVOP формата : 1
Параметр QPel формата : Нет
Параметр GMC формата : Без точки перехода
Параметр матрицы формата : Default (MPEG)
Идентификатор кодека : XVID
Идентификатор кодека/Подсказка : XviD
Продолжительность : 54 м.
Битрейт : 1407 Кбит/сек
Ширина : 720 пикселей
Высота : 400 пикселей
Соотношение сторон : 16:9
Частота кадров : 23,976 кадра/сек
Цветовое пространство : YUV
Субдискретизация насыщенности : 4:2:0
Битовая глубина : 8 бит
Тип развёртки : Прогрессивная
Метод сжатия : С потерями
Бит/(Пиксели*Кадры) : 0.204
Размер потока : 549 Мбайт (84%)
Библиотека кодирования : XviD 1.2.1 (UTC 2008-12-04)
Аудио #1
Идентификатор : 1
Формат : MPEG Audio
Версия формата : Version 1
Профиль формата : Layer 3
Режим : Joint stereo
Расширение режима : MS Stereo
Идентификатор кодека : 55
Идентификатор кодека/Подсказка : MP3
Продолжительность : 54 м.
Вид битрейта : Постоянный
Битрейт : 128 Кбит/сек
Каналы : 2 канала
Частота : 48,0 КГц
Метод сжатия : С потерями
Размер потока : 50,0 Мбайт (8%)
Выравнивание : Соединение по промежуткам
Продолжительность промежутка : 42 мс. (1,00 видеокадр)
Время предзагрузки промежутка : 504 мс.
Заголовок : Russian (AlexFilm)
Аудио #2
Идентификатор : 2
Формат : MPEG Audio
Версия формата : Version 1
Профиль формата : Layer 3
Режим : Joint stereo
Расширение режима : MS Stereo
Идентификатор кодека : 55
Идентификатор кодека/Подсказка : MP3
Продолжительность : 54 м.
Вид битрейта : Постоянный
Битрейт : 128 Кбит/сек
Каналы : 2 канала
Частота : 48,0 КГц
Метод сжатия : С потерями
Размер потока : 50,0 Мбайт (8%)
Выравнивание : Соединение по промежуткам
Продолжительность промежутка : 42 мс. (1,00 видеокадр)
Время предзагрузки промежутка : 504 мс.
Заголовок : English
-

Скриншот c названием фильма

-Скриншоты:
-

Еще

-

Внимание! Раздача ведётся путём добавления новых серий!

Раздача ведётся путём добавления новых серий; при каждом добавлении создаётся новый торрент.
Чтобы начать докачку новой серии, пользователям необходимо сделать следующее:
1. остановить скачивание,
2. удалить старый торрент у себя из клиента (старые серии удалять не надо),
3. скачать новый торрент и запустить его у себя в клиенте вместо старого, при этом указать клиенту путь в старую папку, куда и должно происходить скачивание новых серий.
Ваш клиент при этом должен произвести хеширование (проверку) старой папки (если не производит сам - помогите ему сделать это), и будет докачивать только те серии которых у вас ещё нет. Старые серии при этом не удаляются, а продолжают раздаваться!
Eсли вы уже удалили старые серии, то предотвратить повторную закачку старых серий можно, отжав галочку в соответствующих местах при запуске нового торрента. По возможности, желательно не удалять старые серии как можно дольше, чтобы релизёр не столько продолжал раздавать старые серии, а смог сконцентрироваться на новых.
Совет для тех, кто не хочет ждать перехеширования:
Создайте ещё одну папку рядом с папкой сериала (рядом, а не в ней!!!). Каждую новую серию после удачной загрузки копируйте в новую папку так чтобы ваша основная папка всегда была пуста. Когда ваш новый торрент предложит вам закачать все файлы, выберете только последнюю. Для сидирования же укажите адрес новой папки.
Как закачать отдельный файл из торрента или докачать ранее пропущенные файлы торрента!
-

Как закачать отдельный файл

1. Открыть торрент
2. Снять галки с тех файлов торрента, которые мы не хотим закачивать. Оставляем только на нужных нам файлах (файле).
3. Нажать О.К.
В клиенте utorrent
Инструкция
1) Открыть торрент

2) Снять галки с тех файлов торрента, которые мы не хотим закачивать:
* либо вручную, снимая с каждого файла галку( скрин №1)
* либо, нажав кнопку "Снять метки (Select None)", сняв сразу со всех файлов(скрин №2)
№1

№2

Оставляем только на нужных нам файлах (файле).

3)Нажать О.К
-Добавлена первая серия пятого сезонаРаботаю за
Яндекс.Метрика
Рейтинг@Mail.ru