[ Сегодня на трекере фрилич! Идет свободное скачивание без начисления Download ]

Джон Уик / John Wick (Дэвид Лейтч / David Leitch, Чад Стахелски / Chad Stahelski) [2014 г., боевик, триллер, WEB-DL, 720p] VO [Д. Есарев] + Original (Eng) + Sub (Rus, Eng)

 

Создавать темы 15-Янв-2015 06:38

-Джон Уик / John Wick--
Производство: Китай, Канада, США / 87Eleven, Company Films, DefyNite Films
Год выпуска: 2014 г.
Жанр: боевик, триллер
Продолжительность: 01:41:12
Мировая премьера: 19 сентября 2014
Российская премьера: 1 января 2015, «West»
Перевод: Любительский (одноголосый, закадровый) [Д. Есарев]
Оригинальный аудиопоток: английский
Режиссер: Дэвид Лейтч / David Leitch, Чад Стахелски / Chad Stahelski-В ролях:
Киану Ривз, Микаэл Нюквист, Элфи Оуэн-Аллен, Уиллем Дефо, Дин Уинтерс, Эдрианн Палики, Омер Барнеа, Тоби Мур, Дэниэл Бернхард, Бриджет Мойнэхэн-Описание:
Джон Уик — бывший наемный убийца — ведет размеренную жизнь, когда преступник крадет его любимый Mustang 1969 года и попутно убивает собаку Дейзи, единственное живое напоминание об умершей жене. Жажда мести пробуждает в нем, казалось, утерянную хватку…
-
Качество видео: WEB-DL
Контейнер: MKV
Стандарт разрешения: 720p
Видео кодек: MPEG4/AVC
Аудио кодек: AC3
Видео: 1280x530; 3944 kbps; 23.976 fps
Аудио #1: 384 Kbps; 6 ch; 48.0 KHz
Аудио #2: 384 Kbps; 6 ch; 48.0 KHz
Cубтитры: русские (forced (На невнятную русскую речь)), английские

Media Info

General
Unique ID : 197993566966570637349942698158227203144 (0x94F42C877166CE29AC35573085002448)
Complete name : D:\Torrents\John Wick.2014.WEB-DL.720p.AVO.Esarev.mkv
Format : Matroska
Format version : Version 4 / Version 2
File size : 3.40 GiB
Duration : 1h 41mn
Overall bit rate : 4 807 Kbps
Encoded date : UTC 2015-01-13 20:06:44
Writing application : mkvmerge v7.3.0 ('Nouages') 64bit built on Oct 22 2014 18:53:34
Writing library : libebml v1.3.0 + libmatroska v1.4.1
DURATION : 01:41:12.032000000
NUMBER_OF_FRAMES : 189751
NUMBER_OF_BYTES : 291457536
_STATISTICS_WRITING_APP : mkvmerge v7.3.0 ('Nouages') 64bit built on Oct 22 2014 18:53:34
_STATISTICS_WRITING_DATE_UTC : 2015-01-13 20:06:44
_STATISTICS_TAGS : BPS DURATION NUMBER_OF_FRAMES NUMBER_OF_BYTES
Video
ID : 1
Format : AVC
Format/Info : Advanced Video Codec
Format profile : [email protected]
Format settings, CABAC : No
Format settings, ReFrames : 2 frames
Codec ID : V_MPEG4/ISO/AVC
Duration : 1h 41mn
Bit rate : 3 944 Kbps
Width : 1 280 pixels
Height : 530 pixels
Display aspect ratio : 2.40:1
Frame rate mode : Constant
Frame rate : 23.976 fps
Color space : YUV
Chroma subsampling : 4:2:0
Bit depth : 8 bits
Scan type : Progressive
Bits/(Pixel*Frame) : 0.242
Stream size : 2.79 GiB (82%)
Language : English
Default : Yes
Forced : No
Color primaries : BT.709
Transfer characteristics : BT.709
Matrix coefficients : BT.709
Color range : Limited
Audio #1
ID : 2
Format : AC-3
Format/Info : Audio Coding 3
Mode extension : CM (complete main)
Format settings, Endianness : Big
Codec ID : A_AC3
Duration : 1h 41mn
Bit rate mode : Constant
Bit rate : 384 Kbps
Channel(s) : 6 channels
Channel positions : Front: L C R, Side: L R, LFE
Sampling rate : 48.0 KHz
Bit depth : 16 bits
Compression mode : Lossy
Stream size : 278 MiB (8%)
Language : Russian
Default : Yes
Forced : No
Audio #2
ID : 3
Format : AC-3
Format/Info : Audio Coding 3
Mode extension : CM (complete main)
Format settings, Endianness : Big
Codec ID : A_AC3
Duration : 1h 41mn
Bit rate mode : Constant
Bit rate : 384 Kbps
Channel(s) : 6 channels
Channel positions : Front: L C R, Side: L R, LFE
Sampling rate : 48.0 KHz
Bit depth : 16 bits
Compression mode : Lossy
Stream size : 278 MiB (8%)
Language : English
Default : No
Forced : No
Text #1
ID : 4
Format : UTF-8
Codec ID : S_TEXT/UTF8
Codec ID/Info : UTF-8 Plain Text
Title : На невнятную русскую речь
Language : Russian
Default : Yes
Forced : Yes
Text #2
ID : 5
Format : UTF-8
Codec ID : S_TEXT/UTF8
Codec ID/Info : UTF-8 Plain Text
Language : English
Default : No
Forced : No
Menu
00:00:00.000 : en:Chapter 1
00:04:57.000 : en:Chapter 2
00:12:22.000 : en:Chapter 3
00:17:07.000 : en:Chapter 4
00:26:25.000 : en:Chapter 5
00:32:40.000 : en:Chapter 6
00:36:24.000 : en:Chapter 7
00:42:16.000 : en:Chapter 8
00:45:33.000 : en:Chapter 9
00:55:02.000 : en:Chapter 10
00:59:27.000 : en:Chapter 11
01:06:13.000 : en:Chapter 12
01:14:17.000 : en:Chapter 13
01:19:13.000 : en:Chapter 14
01:27:29.000 : en:Chapter 15
01:32:24.000 : en:Chapter 16
Яндекс.Метрика
Рейтинг@Mail.ru