[ Сегодня на трекере фрилич! Идет свободное скачивание без начисления Download ]

Левиафан (Андрей Звягинцев) [2014 г., драма, iTunes WEB-DL, 720p]O (iTunes) + Sub (Eng, hardsub)

 

Создавать темы 15-Янв-2015 06:18

-Левиафан-- Производство: Россия, Нон-стоп Продакшн
Режиссер: Андрей Звягинцев
Жанр: драма
Год выпуска: 2014 г.
Продолжительность: 02:21:21
Российская премьера: 5 февраля 2015, «Двадцатый Век Фокс СНГ», «A Company»
В ролях: Алексей Серебряков, Елена Лядова, Владимир Вдовиченков, Роман Мадянов, Анна Уколова, Алексей Розин, Сергей Походаев, Валерий Гришко, Сергей Бачурский, Платон Каменев-Описание: В центре истории — живущий на севере Николай, который вместе с отцом построил дом и мастерскую. Но его нормальная жизнь рушится под влиянием судьбы.-Сэмпл КиноПоиск
Качество видео: iTunes WEB-DL
Контейнер: MKV
Стандарт разрешения: 720p
Видео кодек: MPEG-4 AVC
Аудио кодек: AC3
Видео: 1280x532, 3895 kbps avg, 24.000 fps
Аудио: 384.00 kbps avg, 6 ch, 48 kHz
Cубтитры: английские
Формат субтитров: hardsub (неотключаемые)

Media Info

Общее
Кол-во : 302
Кол-во потоков такого типа : 1
Тип потока : General
Тип потока : Общее
Идентификатор типа потока : 0
Inform : Matroska: 4,31 Гбайт, 2 ч. 21 м.
Уникальный идентификатор : 242673664275398035109462343567237185009
Уникальный идентификатор : 242673664275398035109462343567237185009 (0xB6913F6793D38918A33D446F94CFFDF1)
Кол-во видеопотоков : 1
Кол-во аудиопотоков : 1
Кол-во потоков меню : 1
Video_Format_List : AVC
Video_Format_WithHint_List : AVC
Видеокодеки : AVC
Video_Language_List : English
Audio_Format_List : AC-3
Audio_Format_WithHint_List : AC-3
Аудиокодеки : AC3
Audio_Language_List : Russian
Полное имя : E:\Lev1afaH.2014.O.WEB-DL.720p.mkv
Имя папки : E:
Имя файла : Lev1afaH.2014.O.WEB-DL.720p
Расширение : mkv
Формат : Matroska
Формат : Matroska
Формат/Ссылка : http://packs.matroska.org/
Формат/Используется в : mkv mk3d mka mks
Коммерческое название : Matroska
Версия формата : Version 4 / Version 2
Кодек : Matroska
Кодек : Matroska
Кодек/Ссылка : http://packs.matroska.org/
Кодек/Используется в : mkv mk3d mka mks
Размер файла : 4628436164
Размер файла : 4,31 Гбайт
Размер файла : 4 Гбайт
Размер файла : 4,3 Гбайт
Размер файла : 4,31 Гбайт
Размер файла : 4,311 Гбайт
Продолжительность : 8481376
Продолжительность : 2 ч. 21 м.
Продолжительность : 2 ч. 21 м. 21 с. 376 мс.
Продолжительность : 2 ч. 21 м.
Продолжительность : 02:21:21.376
Продолжительность : 02:21:21:09
Продолжительность : 02:21:21.376 (02:21:21:09)
Общий поток : 4365741
Общий поток : 4366 Кбит/сек
Частота кадров : 24.000
Частота кадров : 24,000 кадра/сек
Счётчик кадров : 203553
Размер потока : 92106167
Размер потока : 87,8 Мбайт (2%)
Размер потока : 88 Мбайт
Размер потока : 88 Мбайт
Размер потока : 87,8 Мбайт
Размер потока : 87,84 Мбайт
Размер потока : 87,8 Мбайт (2%)
Пропорции потока : 0.01990
Дата кодирования : UTC 2015-01-13 21:05:43
Дата файла : UTC 2015-01-14 13:24:49.369
Дата файла (местная) : 2015-01-14 16:24:49.369
Дата изменения файла : UTC 2015-01-14 12:43:22.818
Дата изменения файла (местная) : 2015-01-14 15:43:22.818
Программа кодирования : mkvmerge v6.9.1 ('Blue Panther') 64bit built on Apr 18 2014 18:23:38
Библиотека кодирования : libebml v1.3.0 + libmatroska v1.4.1
Библиотека кодирования : libebml v1.3.0 + libmatroska v1.4.1
Видео
Кол-во : 297
Кол-во потоков такого типа : 1
Тип потока : Video
Тип потока : Видео
Идентификатор типа потока : 0
StreamOrder : 1
Inform : English, 3895 Кбит/сек, 1280*532 (2,40:1), в 24,000 кадра/сек, AVC ([email protected]) (2 Ref Frames)
Идентификатор : 2
Идентификатор : 2
Уникальный идентификатор : 3706851293922185604
Формат : AVC
Формат/Информация : Advanced Video Codec
Формат/Ссылка : http://developers.videolan.org/x264.html
Коммерческое название : AVC
Профиль формата : [email protected]
Настройки формата : 2 Ref Frames
Параметр CABAC формата : No
Параметр CABAC формата : Нет
Параметр ReFrames формата : 2
Параметр ReFrames формата : 2 кадра
Интернет-тип носителя : video/H264
Идентификатор кодека : V_MPEG4/ISO/AVC
Идентификатор кодека/Ссылка : http://ffdshow-tryout.sourceforge.net/
Кодек : V_MPEG4/ISO/AVC
Кодек : AVC
Кодек/Семейство : AVC
Кодек/Информация : Advanced Video Codec
Кодек/Ссылка : http://ffdshow-tryout.sourceforge.net/
Профиль кодека : [email protected]
Настройки кодека : 2 Ref Frames
Параметр CABAC кодека : No
Codec_Settings_RefFrames : 2
Продолжительность : 8481375
Продолжительность : 2 ч. 21 м.
Продолжительность : 2 ч. 21 м. 21 с. 375 мс.
Продолжительность : 2 ч. 21 м.
Продолжительность : 02:21:21.375
Продолжительность : 02:21:21:09
Продолжительность : 02:21:21.375 (02:21:21:09)
Битрейт : 3894863
Битрейт : 3895 Кбит/сек
Ширина : 1280
Ширина : 1280 пикселей
Высота : 532
Высота : 532 пикселя
Пропорции пикселя : 1.000
Соотношение сторон : 2.406
Соотношение сторон : 2,40:1
Режим частоты кадров : CFR
Режим частоты кадров : Постоянный
Частота кадров : 24.000
Частота кадров : 24,000 кадра/сек
Счётчик кадров : 203553
Разрешение : 8
Разрешение : 8 бит
Колориметрия : 4:2:0
Цветовое пространство : YUV
Субдискретизация насыщенности : 4:2:0
Битовая глубина : 8
Битовая глубина : 8 бит
Тип развёртки : Progressive
Тип развёртки : Прогрессивная
Переплетение : PPF
Переплетение : Прогрессивная
Бит/(Пиксели*Кадры) : 0.238
Задержка : 0
Задержка : 00:00:00.000
Задержка в оригинале : Container
Задержка в оригинале : Контейнер
Размер потока : 4129223949
Размер потока : 3,85 Гбайт (89%)
Размер потока : 4 Гбайт
Размер потока : 3,8 Гбайт
Размер потока : 3,85 Гбайт
Размер потока : 3,846 Гбайт
Размер потока : 3,85 Гбайт (89%)
Пропорции потока : 0.89214
Язык : en
Язык : English
Язык : English
Язык : en
Язык : eng
Язык : en
Default : Yes
Default : Да
Forced : No
Forced : Нет
colour_description_present : Yes
Основные цвета : BT.709
Характеристики трансфера : BT.709
Коэффициенты матрицы : BT.709
colour_range : Limited
Аудио
Кол-во : 267
Кол-во потоков такого типа : 1
Тип потока : Audio
Тип потока : Аудио
Идентификатор типа потока : 0
StreamOrder : 0
Inform : Russian, 384 Кбит/сек, 48,0 КГц, 16 бит, 6 каналов, AC-3
Идентификатор : 1
Идентификатор : 1
Уникальный идентификатор : 11853852125989156006
Формат : AC-3
Формат/Информация : Audio Coding 3
Коммерческое название : AC-3
Расширение режима : CM (complete main)
Параметр Endianness формата : Big
Идентификатор кодека : A_AC3
Кодек : AC3
Кодек : AC3
Кодек/Семейство : AC3
Кодек/Информация : Dolby AC3
Продолжительность : 8481376
Продолжительность : 2 ч. 21 м.
Продолжительность : 2 ч. 21 м. 21 с. 376 мс.
Продолжительность : 2 ч. 21 м.
Продолжительность : 02:21:21.376
Продолжительность : 02:21:21.376
Вид битрейта : CBR
Вид битрейта : Постоянный
Битрейт : 384000
Битрейт : 384 Кбит/сек
Каналы : 6
Каналы : 6 каналов
Расположение каналов : Front: L C R, Side: L R, LFE
Расположение каналов : 3/2/0.1
ChannelLayout : L C R LFE Ls Rs
Частота : 48000
Частота : 48,0 КГц
Количество образцов : 407106048
Разрешение : 16
Разрешение : 16 бит
Битовая глубина : 16
Битовая глубина : 16 бит
Метод сжатия : Lossy
Метод сжатия : С потерями
Задержка : 0
Задержка : 00:00:00.000
Задержка в оригинале : Container
Задержка в оригинале : Контейнер
Задержка видео : 0
Задержка видео : 00:00:00.000
Задержка видео : 0
Задержка видео : 00:00:00.000
Размер потока : 407106048
Размер потока : 388 Мбайт (9%)
Размер потока : 388 Мбайт
Размер потока : 388 Мбайт
Размер потока : 388 Мбайт
Размер потока : 388,2 Мбайт
Размер потока : 388 Мбайт (9%)
Пропорции потока : 0.08796
Язык : ru
Язык : Russian
Язык : Russian
Язык : ru
Язык : rus
Язык : ru
Default : Yes
Default : Да
Forced : No
Forced : Нет
bsid : 8
dialnorm : -27
dialnorm/String : -27 dB
compr : -0.28
compr/String : -0.28 dB
acmod : 7
lfeon : 1
dialnorm_Average : -27
dialnorm_Average/String : -27 dB
dialnorm_Minimum : -27
dialnorm_Minimum/String : -27 dB
dialnorm_Maximum : -27
dialnorm_Maximum/String : -27 dB
dialnorm_Count : 2
compr_Average : -0.28
compr_Average/String : -0.28 dB
compr_Minimum : -0.28
compr_Minimum/String : -0.28 dB
compr_Maximum : -0.28
compr_Maximum/String : -0.28 dB
compr_Count : 2
Меню
Кол-во : 92
Кол-во потоков такого типа : 1
Тип потока : Menu
Тип потока : Меню
Идентификатор типа потока : 0
Chapters_Pos_Begin : 80
Chapters_Pos_End : 92
00:00:00.000 : en:Chapter 1
00:12:20.000 : en:Chapter 2
00:24:27.000 : en:Chapter 3
00:38:07.000 : en:Chapter 4
00:48:23.000 : en:Chapter 5
01:00:49.000 : en:Chapter 6
01:15:09.000 : en:Chapter 7
01:26:44.000 : en:Chapter 8
01:37:39.000 : en:Chapter 9
01:50:56.000 : en:Chapter 10
02:02:39.000 : en:Chapter 11
02:16:12.000 : en:Chapter 12

Скриншоты

Яндекс.Метрика
Рейтинг@Mail.ru