В глубины разума / Into the Mind (Эрик Кросленд / Eric Crosland, Дэйв Моссоп / Dave Mossop) [2013 г., спорт, документальный, WEB-DLRip] VO (Lord32x)

 

Создавать темы 15-Янв-2015 06:17

-В глубины разума / Into the Mind- Производство: Канада / Sherpas Cinema
Год выпуска: 2013 г.
Жанр: спорт, документальный
Продолжительность: 01:22:46
Мировая премьера: 27 сентября 2013
Перевод: Любительский (одноголосый, закадровый) [Lord32x]-Режиссер: Эрик Кросленд / Eric Crosland, Дэйв Моссоп / Dave Mossop
В ролях: Каллум Петтит, Кай Петерсен, Дж.П. Оклер, Ксавьер Де Ле Ру, Том Уоллиш, Эрик Хджорлифсон, Давид Каррье Поршерон, Джонни Коллинсон, Ангел Коллинсон-Описание: Что тянет нас на приключения? Как мы справляемся с рисками? Какие силы формируют эту зависимость? Уникальные кадры райдеров из различных видов спорта и дисциплин открывают нам окно в невиданный доселе мир.- -Качество видео: WEB-DLRip
Контейнер: AVI
Видео кодек: XviD
Аудио кодек: AC3
Видео: 720x400 (1.80:1), 23.976 fps, XviD build 50 ~2137 kbps avg, 0.31 bit/pixel
Аудио: 48 kHz, AC3 Dolby Digital, 3/2 (L,C,R,l,r) + LFE ch, ~384 kbps
Cубтитры: отсутствуют

Media Info

General
Complete name : D:\Into.the.Mind.2013.WEB-DLRip.1500MB.avi
Format : AVI
Format/Info : Audio Video Interleave
File size : 1.46 GiB
Duration : 1h 22mn
Overall bit rate : 2 531 Kbps
Writing application : VirtualDubMod 1.5.10.3 | www.virtualdub-fr.org || (build 2550/release)
Writing library : VirtualDubMod build 2550/release
Video
ID : 0
Format : MPEG-4 Visual
Format profile : Advanced [email protected]
Format settings, BVOP : 1
Format settings, QPel : No
Format settings, GMC : No warppoints
Format settings, Matrix : Default (H.263)
Codec ID : XVID
Codec ID/Hint : XviD
Duration : 1h 22mn
Bit rate : 2 138 Kbps
Width : 720 pixels
Height : 400 pixels
Display aspect ratio : 16:9
Frame rate : 23.976 fps
Color space : YUV
Chroma subsampling : 4:2:0
Bit depth : 8 bits
Scan type : Progressive
Compression mode : Lossy
Bits/(Pixel*Frame) : 0.310
Stream size : 1.24 GiB (84%)
Writing library : XviD 1.2.1 (UTC 2008-12-04)
Audio
ID : 1
Format : AC-3
Format/Info : Audio Coding 3
Mode extension : CM (complete main)
Format settings, Endianness : Big
Codec ID : 2000
Duration : 1h 22mn
Bit rate mode : Constant
Bit rate : 384 Kbps
Channel(s) : 6 channels
Channel positions : Front: L C R, Side: L R, LFE
Sampling rate : 48.0 KHz
Bit depth : 16 bits
Compression mode : Lossy
Stream size : 227 MiB (15%)
Alignment : Split accross interleaves
Interleave, duration : 42 ms (1.00 video frame)
Interleave, preload duration : 500 ms

Скриншоты

Яндекс.Метрика
Рейтинг@Mail.ru