Григорий Лепс ft. Наталия Власова - Бай-бай [2014 г.] (Pop) [HDTVRip, 1080p]

 

Создавать темы 15-Янв-2015 06:11

-Григорий Лепс ft. Наталия Власова - Бай-бай-- Год выпуска: 2014 г.
Страна: Россия
Жанр: Pop
Продолжительность: 00:03:09-Качество видео: HDTVRip
Контейнер: MP4
Стандарт разрешения: 1080p
Видео кодек: H.264
Аудио кодек: AAC
Видео: 1920x1080, 4496 Кbps, 25,000 fps, 0.087 bit/pic
Аудио: AAC, 44,1 kHz, 152 kbps, 2 ch
-

Media Info

Общее
Полное имя                               : D:\Torrent files\Григорий Лепс ft. Наталия Власова - Бай-бай.mp4
Формат                                   : MPEG-4
Профиль формата                          : Base Media
Идентификатор кодека                     : isom
Размер файла                             : 107 Мбайт
Продолжительность                        : 3 м. 9 с.
Режим общего битрейта                    : Переменный
Общий поток                              : 4725 Кбит/сек
Дата кодирования                         : UTC 2014-12-25 11:13:47
Дата пометки                             : UTC 2014-12-25 11:13:47
Программа кодирования                    : Lavf54.63.104
Видео
Идентификатор                            : 1
Формат                                   : AVC
Формат/Информация                        : Advanced Video Codec
Профиль формата                          : [email protected]
Параметр CABAC формата                   : Да
Параметр ReFrames формата                : 1 кадр
Идентификатор кодека                     : avc1
Идентификатор кодека/Информация          : Advanced Video Coding
Продолжительность                        : 3 м. 9 с.
Битрейт                                  : 4496 Кбит/сек
Ширина                                   : 1920 пикселей
Высота                                   : 1080 пикселей
Соотношение сторон                       : 16:9
Режим частоты кадров                     : Постоянный
Частота кадров                           : 25,000 кадров/сек
Цветовое пространство                    : YUV
Субдискретизация насыщенности            : 4:2:0
Битовая глубина                          : 8 бит
Тип развёртки                            : Прогрессивная
Бит/(Пиксели*Кадры)                      : 0.087
Размер потока                            : 103 Мбайт (97%)
Библиотека кодирования                   : x264 core 129
Настройки программы                      : cabac=1 / ref=1 / deblock=1:0:0 / analyse=0x1:0x131 / me=dia / subme=2 / psy=1 / psy_rd=1.00:0.00 / mixed_ref=0 / me_range=16 / chroma_me=1 / trellis=0 / 8x8dct=0 / cqm=0 / deadzone=21,11 / fast_pskip=1 / chroma_qp_offset=0 / threads=2 / lookahead_threads=1 / sliced_threads=0 / nr=0 / decimate=1 / interlaced=0 / bluray_compat=0 / constrained_intra=0 / bframes=0 / weightp=2 / keyint=250 / keyint_min=25 / scenecut=40 / intra_refresh=0 / rc_lookahead=40 / rc=abr / mbtree=1 / bitrate=4496 / ratetol=1.0 / qcomp=0.60 / qpmin=10 / qpmax=51 / qpstep=4 / ip_ratio=1.41 / aq=1:1.00
Дата кодирования                         : UTC 2014-12-25 11:13:47
Дата пометки                             : UTC 2014-12-25 11:13:47
Аудио
Идентификатор                            : 2
Формат                                   : AAC
Формат/Информация                        : Advanced Audio Codec
Профиль формата                          : LC
Идентификатор кодека                     : 40
Продолжительность                        : 3 м. 9 с.
Duration_FirstFrame                      : 70 мс.
Вид битрейта                             : Переменный
Битрейт                                  : 152 Кбит/сек
Максимальный битрейт                     : 176 Кбит/сек
Каналы                                   : 2 канала
Расположение каналов                     : Front: L R
Частота                                  : 44,1 КГц
Метод сжатия                             : С потерями
Размер потока                            : 3,44 Мбайт (3%)
Дата кодирования                         : UTC 2014-12-25 11:13:47
Дата пометки                             : UTC 2014-12-25 11:13:47

Скриншоты

--
Яндекс.Метрика
Рейтинг@Mail.ru