Silent Circle - Best (MTV Music History) (2000) [FLAC (image + .cue)|Lossless]<Eurodance, Disco, Italo-Disco>

 

Создавать темы 13-Янв-2015 23:52

Silent Circle - Best (MTV Music History)- Год: 2000
Страна: Германия
Жанр: Eurodance, Disco, Italo-Disco
Производитель диска: Россия
Лейбл: Halahup Records
Номер по каталогу: HAL596
Формат: CD, Compilation, Unofficial Release
Продолжительность: 01:20:12
Кодек: FLAC
Тип рипа: image + .cue
Битрейт: Lossless-Треклист:
01. 2 Night
02. Stop The Rain In The Night
03. Like An Ocean
04. Touch In The Night
05. I Am Your Believer
06. For You
07. Give Me Time
08. Every Move, Every Touch
09. Night After Night
10. Night Train
11. I'm Just A Man In Love
12. Moonlight Affair
13. Hide Away - Man Is Comin' !
14. t's Not A Secret
15. Take A Chance
16. Sib Dub Dua
17. Dreams
18. Be My Lover
19. Shy Girl
20. Anywhere Tonight
21. Love Is Just A Word

Отчёт ЕАС&#58;

Exact Audio Copy V1.0 beta 1 from 15. November 2010
Отчёт EAC об извлечении, выполненном 6. февраля 2011, 15:48
Silent Circle / Best(MTV Music History)
Дисковод: Optiarc DVD RW AD-7560A   Adapter: 0  ID: 0
Режим чтения                 : Достоверность
Использование точного потока : Да
Отключение кэша аудио        : Да
Использование указателей C2  : Нет
Коррекция смещения при чтении                     : 6
Способность читать области Lead-in и Lead-out     : Нет
Заполнение пропущенных сэмплов тишиной            : Да
Удаление блоков с тишиной в начале и конце        : Нет
При вычислениях CRC использовались нулевые сэмплы : Нет
Интерфейс                                         : Установленный внешний ASPI-интерфейс
Выходной формат : Внутренние WAV-операции
Формат сэмплов  : 44.100 Гц; 16 бит; стерео
TOC извлечённого CD
     Трек |   Старт  | Длительность | Начальный сектор | Конечный сектор
    ---------------------------------------------------------------------
       1  |  0:00.00 |    5:44.40   |           0      |      25839
       2  |  5:44.40 |    3:34.17   |       25840      |      41906
       3  |  9:18.57 |    3:43.04   |       41907      |      58635
       4  | 13:01.61 |    3:47.52   |       58636      |      75712
       5  | 16:49.38 |    5:39.64   |       75713      |     101201
       6  | 22:29.27 |    1:32.61   |      101202      |     108162
       7  | 24:02.13 |    3:50.49   |      108163      |     125461
       8  | 27:52.62 |    4:43.15   |      125462      |     146701
       9  | 32:36.02 |    4:07.26   |      146702      |     165252
      10  | 36:43.28 |    4:44.65   |      165253      |     186617
      11  | 41:28.18 |    2:56.01   |      186618      |     199818
      12  | 44:24.19 |    3:24.31   |      199819      |     215149
      13  | 47:48.50 |    5:00.34   |      215150      |     237683
      14  | 52:49.09 |    3:24.49   |      237684      |     253032
      15  | 56:13.58 |    3:50.40   |      253033      |     270322
      16  | 60:04.23 |    3:00.46   |      270323      |     283868
      17  | 63:04.69 |    3:51.18   |      283869      |     301211
      18  | 66:56.12 |    3:14.03   |      301212      |     315764
      19  | 70:10.15 |    3:28.61   |      315765      |     331425
      20  | 73:39.01 |    3:16.51   |      331426      |     346176
      21  | 76:55.52 |    3:16.11   |      346177      |     360887
Характеристики диапазона извлечения и сообщения об ошибках
Выбранный диапазон
     Имя файла D:\Downloads\Музыка\Silent Circle - Best(MTV Music History).wav
     Пиковый уровень 100.0 %
     Скорость извлечения 0.2 X
     Качество диапазона 100.0 %
     CRC теста EF2AF684
     CRC копии EF2AF684
     Копирование... OK
Ошибок не произошло
Конец отчёта
[/hide][hide=Отчёт auCDtect Task manager:]
-----------------------
DON'T MODIFY THIS FILE
-----------------------
PERFORMER: auCDtect Task Manager, ver. 1.6.0 RC1 build 1.6.0.1
Copyright (c) 2008-2010 y-soft. All rights reserved
http://y-soft.org
ANALYZER: auCDtect: CD records authenticity detector, version 0.8.2
Copyright (c) 2004 Oleg Berngardt. All rights reserved.
Copyright (c) 2004 Alexander Djourik. All rights reserved.
FILE: Silent Circle - Best(MTV Music History).flac
  Size: 604652447 Hash: 40818454BC3B9571D71CB38DB9377BE1 Accuracy: -m0
  Conclusion: CDDA 100%
  Signature: F2D21BFC7D17CFA694ADDFD19377AF12941D230D
--
Яндекс.Метрика
Рейтинг@Mail.ru